<?xml version="1.0" standalone="no"?>
<!DOCTYPE svg PUBLIC "-//W3C//DTD SVG 1.1//EN" "http://www.w3.org/Graphics/SVG/1.1/DTD/svg11.dtd" >
<svg xmlns="http://www.w3.org/2000/svg" xmlns:xlink="http://www.w3.org/1999/xlink" version="1.1">
<metadata>
Created by FontForge 20150102 at Thu Feb  5 06:24:23 2015
 By uniteet7
SerifGothicEF-Light
</metadata>
<defs>
<font id="serifgothiceflight" horiz-adv-x="500" >
  <font-face 
    font-family="serifgothiceflight"
    font-weight="500"
    font-stretch="normal"
    units-per-em="1000"
    panose-1="0 0 0 0 0 0 0 0 0 0"
    ascent="800"
    descent="-200"
    x-height="452"
    cap-height="667"
    bbox="-157 -250 1024 904"
    underline-thickness="20"
    underline-position="-172"
    unicode-range="U+0020-FB02"
  />
<missing-glyph horiz-adv-x="280" 
 />
    <glyph glyph-name=".notdef" horiz-adv-x="280" 
 />
    <glyph glyph-name=".null" horiz-adv-x="0" 
 />
    <glyph glyph-name="nonmarkingreturn" horiz-adv-x="333" 
 />
    <glyph glyph-name="space" unicode=" " horiz-adv-x="250" 
d="M0 0z" />
    <glyph glyph-name="exclam" unicode="!" horiz-adv-x="251" 
d="M109 667h72q-8 -15 -8 -27v-18l-8 -416v-11q0 -21 8 -35h-55q8 14 8 35v11l-8 416l-1 18q0 14 -8 27zM145 70q16 0 27.5 -11t11.5 -27t-11 -27.5t-28 -11.5q-16 0 -27 11.5t-11 27.5t11 27t27 11z" />
    <glyph glyph-name="quotedbl" unicode="&#x22;" horiz-adv-x="285" 
d="M99 398h-32l-7 269h47zM218 398h-32l-7 269h47z" />
    <glyph glyph-name="numbersign" unicode="#" horiz-adv-x="600" 
d="M533 260l-7 -40h-114l-33 -220h-44l33 220h-161l-33 -220h-44l33 220h-117l6 40h117l24 160h-117l6 40h117l32 207h44l-31 -207h160l31 207h45l-31 -207h113l-6 -40h-113l-24 -160h114zM398 420h-161l-23 -160h161z" />
    <glyph glyph-name="dollar" unicode="$" horiz-adv-x="587" 
d="M258 34v339q-40 23 -61 39q-68 50 -68 122q0 54 35 91.5t94 47.5v26q0 23 -8 39h48v-65q12 -2 16 -3q23 -3 31 -6l19 -5q8 -2 12 -2q7 0 16 5v-67q-57 35 -111 35q-43 0 -73 -28t-30 -67q0 -25 11 -44q14 -25 35 -41t90 -54q83 -44 117 -91t34 -116q0 -80 -44 -132.5
t-123 -65.5v-38q0 -17 9 -27h-49v65q-30 1 -59 8q-7 2 -14 3.5t-11 3t-6 1.5q-12 2 -19 2q-8 0 -22 -7v76q31 -20 61 -31q23 -8 70 -13zM298 35q55 9 87 50.5t32 104.5q0 53 -28 91t-91 69v-315z" />
    <glyph glyph-name="percent" unicode="%" horiz-adv-x="635" 
d="M183 673q59 0 101.5 -42t42.5 -101t-42.5 -101t-101.5 -42t-101 42t-42 101t42 101t101 42zM469 667h64q-12 -12 -20 -27q-6 -10 -9 -16l-331 -589l-10 -16q-2 -6 -2 -9q0 -5 4 -10h-67q16 11 33 42l329 584q13 22 13 31q0 2 -4 10zM452 280q59 0 101 -42t42 -101
q0 -60 -42 -102t-101 -42t-101 42t-42 102q0 59 42 101t101 42zM183 631q-41 0 -70.5 -29.5t-29.5 -71.5t29.5 -71.5t70.5 -29.5q42 0 71.5 29.5t29.5 71.5t-29.5 71.5t-71.5 29.5zM452 237q-41 0 -70.5 -29.5t-29.5 -70.5q-1 -42 28.5 -71.5t71.5 -29.5t71.5 29.5
t29.5 71.5q0 41 -29.5 70.5t-71.5 29.5z" />
    <glyph glyph-name="ampersand" unicode="&#x26;" horiz-adv-x="606" 
d="M373 672v-74q-38 37 -87 37q-54 0 -94 -40t-40 -94q0 -36 18 -63q13 -22 30.5 -33t52.5 -20q-63 -11 -98 -40q-63 -49 -63 -131q0 -78 57 -131t140 -53t140.5 52t57.5 127q0 55 -32 96h-76h-16q-12 0 -24 -9v52h221q29 0 39 10v-53h-92q17 -32 22 -51t5 -47
q0 -92 -70.5 -156t-173.5 -64q-104 0 -175.5 65.5t-71.5 161.5q0 125 115 180q-52 48 -52 111q0 71 53 123t125 52q36 0 55 -8q17 -6 20 -6q5 0 14 6z" />
    <glyph glyph-name="quotesingle" unicode="'" horiz-adv-x="166" 
d="M99 398h-32l-7 269h47z" />
    <glyph glyph-name="parenleft" unicode="(" horiz-adv-x="375" 
d="M311 680l32 -46q-57 -35 -95 -73q-44 -43 -76 -97q-61 -110 -61 -235t61 -234q54 -98 171 -171l-32 -46q-1 6 -3 9q-5 10 -27 26l-28 22q-91 71 -140 173t-49 221t49 221t140 173l28 22q12 10 17 15q10 10 13 20z" />
    <glyph glyph-name="parenright" unicode=")" horiz-adv-x="375" 
d="M64 -222l-32 46q57 35 96 73q48 48 75 98q61 106 61 234q0 127 -61 235q-55 98 -171 170l32 46q3 -6 3 -8q6 -10 27 -27l28 -22q91 -70 140 -172.5t49 -221.5t-48.5 -220.5t-140.5 -173.5l-28 -22q-12 -10 -17 -15q-10 -10 -13 -20z" />
    <glyph glyph-name="asterisk" unicode="*" horiz-adv-x="489" 
d="M234 534l-11 94q-2 10 -4 16q-3 15 -13 23h78q-4 -3 -8 -7q-7 -12 -9 -32l-11 -94q10 -5 18 -11l78 61q17 13 25 27l34 -59h-9h-1q-10 0 -24 -6l-94 -41v-10v-10l94 -41l16 -5q6 -3 12 -3q3 0 7 1l-34 -58q-8 18 -20 26l-84 63q-8 -8 -18 -10l14 -100q4 -22 14 -35h-78
q11 14 13 35l15 100q-11 2 -19 10l-84 -63q-11 -8 -19 -26l-34 57h7q11 0 28 8l94 41q0 3 -0.5 6t-0.5 4t0.5 4.5t0.5 5.5l-94 41q-2 0 -6 2t-6 2q-8 2 -14 2h-8l34 59q6 -14 25 -27l77 -61q9 8 19 11z" />
    <glyph glyph-name="plus" unicode="+" 
d="M33 350h195v180h44v-180h195v-41h-195v-180h-44v180h-195v41z" />
    <glyph glyph-name="comma" unicode="," horiz-adv-x="210" 
d="M92 61h66l-58 -139q-10 -23 -10 -32q0 -2 2 -10h-41l41 140q7 22 7 28q0 5 -7 13z" />
    <glyph glyph-name="hyphen" unicode="-" horiz-adv-x="240" 
d="M0 256h205q22 0 35 8v-53h-202q-26 0 -38 -9v54z" />
    <glyph glyph-name="period" unicode="." horiz-adv-x="210" 
d="M105 70q16 0 27.5 -11t11.5 -27t-11 -27.5t-28 -11.5q-16 0 -27 11.5t-11 27.5t11 27t27 11z" />
    <glyph glyph-name="slash" unicode="/" horiz-adv-x="499" 
d="M397 667h68l-9 -9q-5 -5 -22 -34l-453 -804q-2 -4 -6 -14q-3 -8 -3 -11t3 -8h-66q15 13 31 39l453 804q8 18 8 26q0 3 -4 11z" />
    <glyph glyph-name="zero" unicode="0" horiz-adv-x="587" 
d="M71 333q-1 105 5.5 150.5t26.5 86.5q24 49 76.5 79.5t113.5 30.5t113 -30t78 -80q20 -39 26 -85t6 -152q0 -105 -6 -150.5t-26 -86.5q-25 -49 -77.5 -79t-113.5 -30q-60 0 -112.5 30t-77.5 79q-20 38 -26 84t-6 153zM117 333q0 -102 4.5 -141.5t20.5 -71.5
q19 -38 62.5 -64t88.5 -26t88 26t63 64q16 32 20.5 71t4.5 142t-4.5 142.5t-20.5 71.5q-19 38 -62.5 63.5t-88.5 25.5t-88.5 -25.5t-62.5 -63.5q-16 -31 -20.5 -71t-4.5 -143z" />
    <glyph glyph-name="one" unicode="1" horiz-adv-x="587" 
d="M298 566l-130 -155l-39 32q16 8 32 27l184 211v-638q0 -26 12 -43h-71q12 17 12 43v523z" />
    <glyph glyph-name="two" unicode="2" horiz-adv-x="587" 
d="M512 59v-59h-455l337 321q66 61 66 143q0 70 -51.5 121.5t-121.5 51.5q-71 0 -121 -53t-50 -128v-14h-55q9 12 11 38q9 87 70 143.5t146 56.5q90 0 154 -64t64 -154q0 -94 -85 -176l-253 -242h292q12 0 24 3q17 2 28 12z" />
    <glyph glyph-name="three" unicode="3" horiz-adv-x="587" 
d="M37 245h63q-1 -12 -1 -27q0 -77 55 -132.5t131 -55.5q79 0 134 55.5t55 135.5q0 45 -20 83t-55 60t-97 28q108 17 108 116q0 52 -37 90t-88 38q-52 0 -91 -37t-39 -86q0 -2 0.5 -7t0.5 -9h-61q12 11 13 23l4 23q11 59 59.5 98t111.5 39q71 0 122.5 -49.5t51.5 -119.5
q0 -30 -12 -57q-11 -28 -41 -52q42 -17 65 -42q52 -60 52 -142q0 -94 -70.5 -162.5t-166.5 -68.5q-89 0 -154.5 60t-75.5 152q-2 17 -3 22q-2 15 -14 24z" />
    <glyph glyph-name="four" unicode="4" horiz-adv-x="587" 
d="M434 675v-503h67q30 0 44 15v-59h-111v-85q0 -26 12 -43h-71q12 17 12 43v85h-333l-36 64q13 0 28 19l10 13zM387 172v383l-315 -383h315z" />
    <glyph glyph-name="five" unicode="5" horiz-adv-x="587" 
d="M149 667h282v-55q-13 11 -43 11h-198l-19 -178q53 21 97 21q98 0 166 -69.5t68 -169.5q0 -101 -70 -170.5t-171 -69.5q-47 0 -89 17q-61 27 -90 59q-17 19 -31 19h-4l45 45q22 -42 69.5 -69.5t97.5 -27.5q81 0 138.5 57.5t57.5 137.5t-58 139.5t-136 59.5q-31 0 -66 -12
q-41 -15 -76 -49z" />
    <glyph glyph-name="six" unicode="6" horiz-adv-x="587" 
d="M277 667h84q-14 -10 -22 -18.5t-26 -34.5l-140 -201q41 28 67.5 37t64.5 9q93 0 159.5 -69.5t66.5 -167.5t-68.5 -166.5t-167.5 -68.5q-97 0 -167 69t-70 165q0 84 71 192l135 203q19 28 19 37q0 5 -6 14zM105 223q0 -79 55.5 -135.5t133.5 -56.5q79 0 135 56t56 135
t-56.5 136.5t-133.5 57.5t-133.5 -57.5t-56.5 -135.5z" />
    <glyph glyph-name="seven" unicode="7" horiz-adv-x="587" 
d="M76 667h418l-240 -616q-9 -22 -9 -33q0 -9 9 -18h-80l8 8q9 11 20 38l224 577h-306q-27 0 -44 -11v55z" />
    <glyph glyph-name="eight" unicode="8" horiz-adv-x="587" 
d="M213 392q-78 45 -78 129q0 65 47 112t113 47q65 0 111.5 -47t46.5 -112q0 -88 -77 -129q8 -3 18 -8t13 -6q47 -26 74.5 -74.5t27.5 -104.5q0 -89 -62.5 -150.5t-152.5 -61.5q-89 0 -152.5 62.5t-63.5 151.5q0 59 31 109q20 33 41 49t63 33zM179 521q0 -46 34 -79.5
t80 -33.5q47 0 81.5 34t34.5 80q0 48 -34.5 82t-81.5 34t-80.5 -34.5t-33.5 -82.5zM127 199q0 -71 48.5 -120t118.5 -49t118.5 49t48.5 120q0 70 -49.5 120t-118.5 50t-117.5 -50t-48.5 -120z" />
    <glyph glyph-name="nine" unicode="9" horiz-adv-x="587" 
d="M321 0h-71q2 2 6 5.5t6 4.5q9 12 26 36l143 213q-42 -34 -71 -45.5t-75 -11.5q-99 0 -170 70.5t-71 168.5q0 99 72 169t175 70t175 -68.5t72 -166.5q0 -43 -13 -79q-27 -73 -76 -148l-116 -180q-14 -20 -14 -29q0 -5 2 -9zM90 440q0 -79 60 -137t140 -58t141 59.5
t61 137.5t-59.5 136.5t-138.5 58.5q-82 0 -143 -58.5t-61 -138.5z" />
    <glyph glyph-name="colon" unicode=":" horiz-adv-x="251" 
d="M145 70q16 0 27.5 -11t11.5 -27t-11 -27.5t-28 -11.5q-16 0 -27 11.5t-11 27.5t11 27t27 11zM145 362q17 0 28 -11t11 -28q0 -16 -11.5 -27t-27.5 -11t-27 11t-11 27t11 27.5t27 11.5z" />
    <glyph glyph-name="semicolon" unicode=";" horiz-adv-x="251" 
d="M127 61h66l-58 -139q-10 -23 -10 -32q0 -2 2 -10h-41l41 140q7 22 7 28q0 5 -7 13zM160 362q16 0 27.5 -11.5t11.5 -27.5t-11.5 -27t-27.5 -11t-27 11t-11 27t11 27.5t27 11.5z" />
    <glyph glyph-name="less" unicode="&#x3c;" 
d="M467 542v-44l-386 -170l386 -170v-43l-434 193v40z" />
    <glyph glyph-name="equal" unicode="=" 
d="M33 433h434v-39h-434v39zM33 291h434v-39h-434v39z" />
    <glyph glyph-name="greater" unicode="&#x3e;" 
d="M33 115v44l386 169l-386 170v44l434 -194v-40z" />
    <glyph glyph-name="question" unicode="?" horiz-adv-x="480" 
d="M79 593v76q7 -6 16 -6q5 0 25 6q40 11 73 11q87 0 147.5 -61t60.5 -147q0 -89 -61 -149t-155 -62v-70q0 -26 11 -36h-67q4 4 8 10q3 6 3 15v16v117q36 -6 55 -6q65 0 111.5 49t46.5 116t-47 115.5t-112 48.5q-26 0 -56 -10q-33 -11 -59 -33zM162 70q16 0 27.5 -11
t11.5 -27t-11.5 -27.5t-27.5 -11.5t-27 11.5t-11 27.5t11 27t27 11z" />
    <glyph glyph-name="at" unicode="@" horiz-adv-x="733" 
d="M503 491h34l-43 -220q-6 -27 -6 -49q0 -24 12.5 -38t34.5 -14q49 0 87.5 63t38.5 144q0 115 -80 190t-204 75q-131 0 -220.5 -90t-89.5 -221q0 -128 85 -218q88 -94 240 -94q58 0 110 13q49 11 112 41l11 -30q-17 -9 -25 -12q-94 -44 -208 -44q-158 0 -259 97t-101 249
q0 144 100 243t246 99q136 0 226 -84.5t90 -212.5q0 -95 -48.5 -167t-113.5 -72q-32 0 -51 19.5t-21 53.5q-46 -75 -125 -75q-61 0 -100 45.5t-39 117.5q0 86 50.5 145t124.5 59q88 0 117 -90zM470 359q0 51 -26.5 81t-70.5 30q-58 0 -99 -49.5t-41 -119.5q0 -58 30 -93.5
t77 -35.5q57 0 93.5 52.5t36.5 134.5z" />
    <glyph glyph-name="A" unicode="A" horiz-adv-x="608" 
d="M470 193h-335l-65 -153q-6 -12 -6 -19q0 -10 12 -21h-89q13 9 21 23l11 22q8 16 9 19l267 616l291 -623q2 -4 5 -10.5t7 -14.5t6 -11q8 -12 17 -21h-85q11 11 11 20q0 5 -7 20zM449 238l-153 337l-142 -337h295z" />
    <glyph glyph-name="B" unicode="B" horiz-adv-x="534" 
d="M377 369q16 -7 31 -15q83 -44 83 -147q0 -92 -67.5 -149.5t-176.5 -57.5h-176q12 17 12 43v627q13 -13 27 -13q10 0 30 5q61 15 106 15q79 0 134.5 -54.5t55.5 -132.5q0 -69 -59 -121zM129 45h121q88 0 140 44t52 119q0 130 -166 150q21 5 38 12q33 14 53.5 46t20.5 71
q0 61 -43 103.5t-105 42.5q-46 0 -111 -24v-564z" />
    <glyph glyph-name="C" unicode="C" horiz-adv-x="551" 
d="M531 679v-78q-72 34 -138 34q-124 0 -211.5 -88.5t-87.5 -213.5q0 -123 86 -212.5t205 -89.5q74 0 142 34v-76q-14 11 -25 11q-9 0 -24 -3q-40 -10 -84 -10q-148 0 -247.5 99.5t-99.5 247.5q0 146 101 246t248 100q46 0 86 -8q16 -3 26 -3q12 0 23 10z" />
    <glyph glyph-name="D" unicode="D" horiz-adv-x="625" 
d="M83 670q12 -12 24 -12q10 0 49 9q49 10 81 10q141 0 241.5 -101.5t100.5 -243.5q0 -143 -99 -237.5t-249 -94.5h-160q12 17 12 43v627zM130 44h89q78 0 131 18t96 61q84 82 84 207q0 126 -87.5 214.5t-211.5 88.5q-45 0 -101 -20v-569z" />
    <glyph glyph-name="E" unicode="E" horiz-adv-x="467" 
d="M434 667v-56q-9 8 -16.5 10t-29.5 2h-257v-240h180q27 0 41 12v-66q-12 11 -36 11h-185v-296h267q24 0 36 11v-55h-363q12 17 12 43v581q0 26 -12 43h363z" />
    <glyph glyph-name="F" unicode="F" horiz-adv-x="443" 
d="M433 667v-58q-13 14 -35 14h-268v-266h184q25 0 37 12v-68q-12 13 -35 13h-186v-271q0 -24 12 -43h-71q12 17 12 43v581q0 26 -12 43h362z" />
    <glyph glyph-name="G" unicode="G" horiz-adv-x="654" 
d="M536 666v-72q-63 41 -145 41q-122 0 -209.5 -89t-87.5 -213q0 -123 88 -212.5t209 -89.5q44 0 83 13q43 14 73 43v232h-174q-19 0 -34 -7v58q13 -8 35 -8h220v-251q0 -36 9 -48q-10 -3 -12 -5q-6 -3 -42 -28q-62 -43 -158 -43q-142 0 -243 102t-101 245
q0 145 101.5 245.5t247.5 100.5q41 0 83 -13q29 -9 38 -9q8 0 19 8z" />
    <glyph glyph-name="H" unicode="H" horiz-adv-x="626" 
d="M130 363h366v261q0 23 -13 43h71q-12 -19 -12 -43v-581q0 -24 12 -43h-71q13 19 13 43v276h-366v-276q0 -26 12 -43h-71q12 19 12 43v581q0 24 -12 43h71q-12 -17 -12 -43v-261z" />
    <glyph glyph-name="I" unicode="I" horiz-adv-x="215" 
d="M71 667h73q-13 -19 -13 -43v-581q0 -24 13 -43h-73q12 19 12 43v581q0 24 -12 43z" />
    <glyph glyph-name="J" unicode="J" horiz-adv-x="325" 
d="M7 -12v70q49 -28 93 -28q49 0 72 38t23 119v437q0 24 -12 43h71q-12 -17 -12 -43v-435q0 -61 -7.5 -92.5t-29.5 -60.5q-37 -49 -104 -49q-24 0 -59 9q-9 3 -17 3q-10 0 -18 -11z" />
    <glyph glyph-name="K" unicode="K" horiz-adv-x="559" 
d="M71 667h72q-12 -19 -12 -43v-581q0 -24 12 -43h-72q12 17 12 43v581q0 26 -12 43zM160 335l256 297q14 16 14 25q0 4 -6 10h94q-16 -9 -25 -16q-2 -3 -7 -7.5t-8 -6.5l-2 -2q-1 -2 -4 -5.5t-6 -6.5l-222 -257q133 -28 204 -104.5t89 -212.5q1 -7 4 -26q2 -15 11 -23h-64
v11q0 146 -83.5 228t-244.5 96z" />
    <glyph glyph-name="L" unicode="L" horiz-adv-x="440" 
d="M131 44h257q33 0 45 12v-56h-362q12 17 12 43v581q0 26 -12 43h72q-12 -19 -12 -43v-580z" />
    <glyph glyph-name="M" unicode="M" horiz-adv-x="738" 
d="M369 108l212 566l130 -608q5 -29 11 -42q3 -13 16 -24h-76q10 9 10 22q0 2 -0.5 5.5t-0.5 5.5l-4 16l-98 471l-200 -535l-199 535l-99 -471l-3 -16q-1 -4 -1 -11q0 -13 9 -22h-76q12 11 17 24q5 17 11 42l129 608z" />
    <glyph glyph-name="N" unicode="N" horiz-adv-x="628" 
d="M83 684l415 -570v510q0 24 -12 43h71q-12 -17 -12 -43v-643l-415 565v-503q0 -26 13 -43h-72q12 17 12 43v641z" />
    <glyph glyph-name="O" unicode="O" horiz-adv-x="789" 
d="M47 333q0 143 102 245t245 102t245.5 -102t102.5 -245q0 -142 -102.5 -244t-245.5 -102t-245 101.5t-102 244.5zM96 333q0 -125 87.5 -213.5t210.5 -88.5q124 0 211.5 88.5t87.5 213.5t-87.5 213.5t-211.5 88.5q-123 0 -210.5 -88.5t-87.5 -213.5z" />
    <glyph glyph-name="P" unicode="P" horiz-adv-x="499" 
d="M130 266v-223q0 -24 12 -43h-71q12 17 12 43v627q14 -13 28 -13q12 0 25 4q9 2 17.5 3.5t14.5 3t7 1.5q40 8 73 8q101 0 167.5 -62.5t66.5 -158.5q0 -93 -64.5 -156t-159.5 -63q-51 0 -128 29zM130 313q66 -31 121 -31q81 0 132 48t51 125q0 80 -53 129t-140 49
q-36 0 -57 -5.5t-54 -24.5v-290z" />
    <glyph glyph-name="Q" unicode="Q" horiz-adv-x="789" 
d="M612 62l59 -71l11 -14q8 -10 22 -23h-79q4 7 4 11t-11 20l-42 53q-96 -51 -181 -51q-143 0 -245.5 102.5t-102.5 245.5q0 142 102 243.5t244 101.5q143 0 246 -101.5t103 -243.5q0 -111 -65 -203q-26 -36 -65 -70zM451 288q-5 -8 -5 -11q0 -7 12 -21l127 -158
q14 13 31 30q35 39 56 94t21 111q0 126 -87 214.5t-210 88.5q-124 0 -212 -89t-88 -215q0 -127 87 -214.5t214 -87.5q44 0 73.5 8.5t75.5 34.5l-140 176l-13 16q-3 4 -6.5 7.5t-4.5 5.5l-2 2l-8 8h79z" />
    <glyph glyph-name="R" unicode="R" horiz-adv-x="582" 
d="M578 0h-68q-12 139 -76 214q-35 40 -80.5 62.5t-121.5 38.5q44 7 64 13.5t42 21.5q28 19 45 53t17 70q0 68 -48.5 113.5t-121.5 45.5q-30 0 -49.5 -5.5t-50.5 -22.5v-561q0 -25 13 -43h-72q12 17 12 43v627q16 -10 30 -10q11 0 17 2l30 5q52 10 82 10q85 0 144.5 -58.5
t59.5 -142.5q0 -107 -95 -161q80 -19 136.5 -90.5t69.5 -173.5q4 -25 7.5 -33.5t13.5 -17.5z" />
    <glyph glyph-name="S" unicode="S" horiz-adv-x="423" 
d="M314 674v-82q-46 48 -110 48q-46 0 -76.5 -30t-30.5 -75q0 -26 10 -45q11 -24 31.5 -39t92.5 -54q81 -43 117 -91.5t36 -112.5q0 -86 -59.5 -146t-144.5 -60q-30 0 -62 9q-21 4 -27 6q-11 3 -22 3q-10 0 -21 -5v71q80 -40 131 -40q63 0 110 48t47 114q0 49 -28.5 85.5
t-95.5 74.5q-54 30 -75 43q-88 54 -88 139q0 63 43 104t108 41q30 0 69 -10q12 -4 25 -4q11 0 20 8z" />
    <glyph glyph-name="T" unicode="T" horiz-adv-x="416" 
d="M10 667h396v-52q-13 8 -34 8h-141v-580q0 -26 12 -43h-71q13 19 13 43v580h-141q-21 0 -34 -8v52z" />
    <glyph glyph-name="U" unicode="U" horiz-adv-x="606" 
d="M71 667h71q-12 -19 -12 -43v-402q0 -83 38 -130q23 -28 59.5 -44.5t75.5 -16.5t75.5 16.5t59.5 44.5q38 47 38 130v402q0 26 -12 43h71q-12 -19 -12 -43v-382q0 -69 -10 -106t-38 -71q-29 -36 -75.5 -57t-96.5 -21t-95.5 20.5t-76.5 57.5q-28 32 -38 69.5t-10 107.5v382
q0 24 -12 43z" />
    <glyph glyph-name="V" unicode="V" horiz-adv-x="610" 
d="M305 98l240 530q2 4 4 12q3 8 3 13q0 6 -7 14h78q-12 -11 -23 -35l-296 -647l-294 647q-10 23 -23 35h78q-7 -8 -7 -14v-1q0 -3 3 -12l4 -12z" />
    <glyph glyph-name="W" unicode="W" horiz-adv-x="855" 
d="M315 93l92 213l-149 320q-10 22 -26 41h83q-12 -9 -12 -19q0 -4 6 -19l247 -534l236 539v1q1 1 1.5 3t1.5 4v9q0 8 -8 16h82q-16 -13 -26 -35l-286 -647l-124 265l-118 -265l-294 632q-16 36 -34 50h85q-10 -10 -10 -21q0 -6 6 -18z" />
    <glyph glyph-name="X" unicode="X" horiz-adv-x="496" 
d="M222 364l-164 263q-15 24 -33 40h82q-5 -9 -5 -16q0 -8 11 -26l135 -218l134 216q11 19 11 29q0 8 -8 15h86q-16 -13 -31 -37l-165 -266l204 -326q14 -22 30 -38h-79q6 9 6 14q0 6 -5 14l-8 12l-175 279l-170 -276q-15 -25 -15 -32q0 -5 5 -11h-81q18 15 34 41z" />
    <glyph glyph-name="Y" unicode="Y" horiz-adv-x="505" 
d="M228 305l-206 318q0 1 -4 6.5t-8 10.5q-11 15 -23 27h87q-7 -13 -7 -19q0 -9 13 -29l171 -265l172 261q15 24 15 33q0 7 -9 19h90l-9 -9q-5 -5 -14 -17l-7.5 -10t-5.5 -8l-209 -315v-265q0 -24 12 -43h-71q13 19 13 43v262z" />
    <glyph glyph-name="Z" unicode="Z" horiz-adv-x="444" 
d="M37 667h380l-348 -623h329q25 0 36 11v-55h-441l348 623h-266q-25 0 -38 -10v54z" />
    <glyph glyph-name="bracketleft" unicode="[" horiz-adv-x="395" 
d="M161 628v-803h143h19q18 1 28 14v-52h-245q12 17 12 53v773q0 36 -12 54h245v-53q-5 7 -7 8q-8 6 -40 6h-143z" />
    <glyph glyph-name="backslash" unicode="\" 
d="M68 750l384 -833h-43l-384 833h43z" />
    <glyph glyph-name="bracketright" unicode="]" horiz-adv-x="395" 
d="M234 -175v803h-143h-19q-18 -1 -28 -14v53h245q-12 -16 -12 -54v-773q0 -37 12 -53h-245v52q3 -4 7 -8q8 -6 40 -6h143z" />
    <glyph glyph-name="asciicircum" unicode="^" 
d="M85 381h-49l185 287h58l185 -287h-50l-165 252z" />
    <glyph glyph-name="underscore" unicode="_" 
d="M0 -78h500v-39h-500v39z" />
    <glyph glyph-name="grave" unicode="`" 
d="M83 577l30 67q9 -20 32 -32l165 -89l-6 -13l-178 64q-20 7 -27 7q-5 0 -16 -4z" />
    <glyph glyph-name="a" unicode="a" horiz-adv-x="574" 
d="M460 0v73q-18 -20 -19 -21q-65 -65 -161 -65q-98 0 -167.5 70.5t-69.5 169.5q0 98 70 168.5t167 70.5q23 0 56 -7q50 -13 106 -54q25 -19 38.5 -24t33.5 -5h3q-13 -17 -13 -44v-291q0 -24 10 -41h-54zM460 328q-17 19 -25 28q-65 67 -154 67q-77 0 -135 -59t-58 -139
t58 -138.5t137 -58.5q45 0 89 23q29 15 46.5 30.5t41.5 48.5v198z" />
    <glyph glyph-name="b" unicode="b" horiz-adv-x="573" 
d="M114 667v-284q83 83 179 83q97 0 167 -70.5t70 -168.5q0 -100 -70 -170t-170 -70q-88 0 -168 67q-31 26 -54 26h-11q9 11 11 18.5t2 30.5v497q0 25 -10 41h54zM114 127q14 -19 21 -27q28 -34 70.5 -54t84.5 -20q79 0 137.5 60t58.5 140q0 82 -59 141t-139 59
q-52 0 -99 -27q-27 -15 -41.5 -30t-33.5 -47v-195z" />
    <glyph glyph-name="c" unicode="c" horiz-adv-x="432" 
d="M402 461v-77q-4 3 -9.5 7t-7.5 5q-44 29 -102 29q-79 0 -136.5 -59t-57.5 -139q0 -82 57.5 -141t137.5 -59q61 0 118 42v-72q-11 6 -20 6t-22 -4q-39 -12 -79 -12q-97 0 -167.5 71.5t-70.5 169.5q0 97 70 167.5t167 70.5q35 0 76 -9q15 -5 25 -5q9 0 21 9z" />
    <glyph glyph-name="d" unicode="d" horiz-adv-x="573" 
d="M459 385v241q0 25 -10 41h54v-530v-28q1 -13 13 -30q-12 2 -13 2q-16 0 -49 -26q-87 -68 -172 -68q-98 0 -168.5 70.5t-70.5 169.5t70.5 169t169.5 70q43 0 80 -15q27 -10 46 -23t50 -43zM459 321q-11 20 -15 25q-25 37 -68.5 58.5t-90.5 21.5q-81 0 -139 -58.5
t-58 -139.5t58.5 -141t137.5 -60q43 0 87 22q28 15 46 30.5t42 48.5v193z" />
    <glyph glyph-name="e" unicode="e" horiz-adv-x="554" 
d="M531 205h-441q9 -77 64 -127t132 -50q57 0 137 34v-62q-10 6 -18 6q-9 0 -25 -4l-28 -7q-13 -3 -35 -6q-36 -2 -39 -2q-97 0 -166 70.5t-69 169.5t69.5 169t169.5 70q94 0 163.5 -64t74.5 -156q0 -5 0.5 -10.5t0.5 -6.5q1 -13 10 -24zM474 246q-9 78 -62.5 128t-128.5 50
q-77 0 -133 -52t-60 -126h384z" />
    <glyph glyph-name="f" unicode="f" horiz-adv-x="264" 
d="M121 452h138v-49q-12 8 -35 8h-103v-370q0 -24 10 -41h-65q11 16 11 41v370h-30q-22 0 -36 -12v53h66q0 80 18 120q15 35 49.5 60t76.5 31l20 3q11 1 23 12v-62q-16 5 -28 5q-32 0 -60.5 -18t-41.5 -46q-13 -27 -13 -92v-13z" />
    <glyph glyph-name="g" unicode="g" horiz-adv-x="571" 
d="M144 -217v73q68 -38 140 -38q98 0 145 76q18 27 23.5 55.5t5.5 89.5v28q-12 -15 -22 -23q-60 -57 -151 -57q-101 0 -171.5 69.5t-70.5 169.5q0 99 70.5 169.5t169.5 70.5q34 0 64 -9q36 -10 62 -28q1 -1 5 -4l12 -9l16 -12q39 -28 72 -30q-13 -17 -13 -51v-279
q0 -78 -9 -113.5t-38 -72.5q-63 -82 -172 -82q-32 0 -89 11q-15 4 -27 4t-22 -8zM458 326q-3 6 -8 13t-6 9q-26 34 -70.5 55t-90.5 21q-81 0 -138.5 -58t-57.5 -140q0 -83 58.5 -140.5t141.5 -57.5q51 0 92 22q29 15 44.5 31t34.5 50v195z" />
    <glyph glyph-name="h" unicode="h" horiz-adv-x="542" 
d="M113 667v-285q10 11 22 23q64 61 142 61q40 0 79 -18t67 -49q49 -55 49 -156v-202q0 -24 10 -41h-64q10 16 10 41v202q0 84 -37 128q-20 25 -52 40t-65 15q-38 0 -78 -21q-29 -16 -45.5 -32t-37.5 -50v-282q0 -25 10 -41h-63q10 17 10 41v585q0 24 -10 41h53z" />
    <glyph glyph-name="i" unicode="i" horiz-adv-x="184" 
d="M114 452v-411q0 -25 10 -41h-64q10 16 10 41v371q0 24 -10 40h54zM93 611q14 0 23.5 -10t9.5 -24q0 -13 -10 -23t-23 -10q-14 0 -24 9.5t-10 23.5t10 24t24 10z" />
    <glyph glyph-name="j" unicode="j" horiz-adv-x="184" 
d="M-100 -227v55q16 -2 32 -2q74 0 106.5 49t32.5 158v379q0 24 -10 40h53v-432q0 -114 -42.5 -172t-130.5 -65q-28 -2 -41 -10zM93 611q14 0 23.5 -10t9.5 -24q0 -13 -10 -23t-23 -10q-14 0 -24 9.5t-10 23.5t10 24t24 10z" />
    <glyph glyph-name="k" unicode="k" horiz-adv-x="466" 
d="M114 667v-626q0 -24 10 -41h-64q10 16 10 41v585q0 25 -10 41h54zM151 250l184 164q2 2 4 3.5t3 2.5t2.5 2t2.5 2q15 14 15 21q0 4 -1 7h81q-8 -4 -15 -8q-13 -10 -37 -32l-147 -133q178 -16 191 -233q2 -32 13 -46h-56q0 66 -7 103q-12 71 -64.5 109.5t-137.5 38.5
q-17 0 -31 -1z" />
    <glyph glyph-name="l" unicode="l" horiz-adv-x="184" 
d="M114 667v-626q0 -25 10 -41h-64q10 16 10 41v585q0 24 -10 41h54z" />
    <glyph glyph-name="m" unicode="m" horiz-adv-x="858" 
d="M114 340v-299q0 -24 10 -41h-64q10 17 10 41v281v23q0 11 -9 23q20 5 53 35q8 7 34 27q51 36 111 36q103 0 166 -98q13 17 23 29q27 32 66.5 50.5t79.5 18.5q83 0 138.5 -59.5t55.5 -148.5v-217q0 -25 10 -41h-63q10 16 10 41v216q0 74 -42 121.5t-108 47.5
q-39 0 -78 -25q-26 -17 -40 -33.5t-31 -50.5q5 -20 5 -47v-229q0 -25 10 -41h-64q10 16 10 41v226q0 67 -42.5 113t-104.5 46q-40 0 -72 -20q-33 -20 -74 -66z" />
    <glyph glyph-name="n" unicode="n" horiz-adv-x="540" 
d="M113 340v-299q0 -25 10 -41h-63q10 17 10 41v268v26q0 15 -12 28q15 2 24.5 7.5t34.5 28.5q28 25 42 34q47 33 113 33q103 0 156 -70q42 -55 42 -166v-189q0 -25 10 -41h-64q11 16 11 41v206q0 85 -41 132t-115 47q-45 0 -83 -21q-36 -20 -75 -65z" />
    <glyph glyph-name="o" unicode="o" horiz-adv-x="565" 
d="M43 226q0 100 70 170t170 70t169.5 -70t69.5 -170t-69.5 -169.5t-169.5 -69.5t-170 69.5t-70 169.5zM87 226q0 -81 58 -139.5t138 -58.5t137.5 58.5t57.5 139.5t-58 140t-137 59q-80 0 -138 -59t-58 -140z" />
    <glyph glyph-name="p" unicode="p" horiz-adv-x="572" 
d="M113 68v-241q0 -24 10 -41h-63q10 16 10 41v496q0 26 -2 34t-12 19q6 -2 15 -2q16 0 47 24q84 68 171 68q99 0 169.5 -70.5t70.5 -168.5q0 -99 -70 -169.5t-168 -70.5t-178 81zM113 131q13 -21 23 -32q27 -33 68 -52.5t84 -19.5q80 0 138 59t58 141q0 80 -59 139.5
t-138 59.5q-42 0 -88 -22q-30 -15 -47 -30t-39 -48v-195z" />
    <glyph glyph-name="q" unicode="q" horiz-adv-x="571" 
d="M458 68q-5 -4 -13.5 -12t-12.5 -12q-66 -57 -152 -57q-98 0 -167.5 70t-69.5 170q0 99 70 169t170 70q88 0 167 -65q35 -28 54 -28h11q-10 -14 -12 -22.5t-2 -33.5v-490q0 -25 11 -41h-64q10 16 10 41v241zM458 327q-76 98 -175 99q-79 0 -137.5 -59t-58.5 -139
t59 -140.5t138 -60.5q45 0 93 25q30 16 45.5 31t35.5 47v197z" />
    <glyph glyph-name="r" unicode="r" horiz-adv-x="302" 
d="M295 466v-55h-18q-68 0 -115 -37q-24 -20 -47 -60v-273q0 -24 10 -41h-65q10 17 10 41v371q0 24 -10 40h55v-77q21 28 39 43q38 30 100 37l22 2q11 1 19 9z" />
    <glyph glyph-name="s" unicode="s" horiz-adv-x="353" 
d="M277 461v-64q-49 29 -89 29q-39 0 -66 -22.5t-27 -54.5q0 -22 14 -41q14 -17 29 -27t63 -32q67 -30 94 -60t27 -73q0 -53 -42.5 -91t-102.5 -38q-41 0 -100 17q-12 2 -14 2q-10 0 -21 -11v75q47 -25 74 -34t56 -9q44 0 75 25.5t31 61.5q0 24 -12 41q-18 28 -84 57
q-43 19 -58 29q-72 38 -72 107q0 49 38.5 83.5t92.5 34.5q28 0 56 -7q15 -5 21 -5t17 7z" />
    <glyph glyph-name="t" unicode="t" horiz-adv-x="265" 
d="M113 452h141v-51l-8 6q-7 5 -34 5h-98v-289q0 -50 13.5 -69t48.5 -19q38 0 78 28v-66q-9 7 -18 7q-12 0 -21 -4q-25 -6 -38 -6q-55 0 -81 30t-26 94v294h-50l93 129v-89z" />
    <glyph glyph-name="u" unicode="u" horiz-adv-x="539" 
d="M426 116v296q0 25 -11 40h64q-10 -16 -10 -40v-276q0 -24 2 -31.5t10 -17.5h-2q-13 0 -21 -5t-30 -25q-41 -38 -77 -54t-82 -16q-89 0 -144 54t-55 141v230q0 24 -10 40h64q-11 -15 -11 -40v-203q0 -48 8 -76t28 -52q48 -55 120 -55q37 0 77 20q26 13 42 26.5t38 43.5z
" />
    <glyph glyph-name="v" unicode="v" horiz-adv-x="462" 
d="M231 78l169 334q10 19 10 28q0 6 -5 12h70q-13 -13 -28 -42l-216 -428l-216 428q-14 28 -28 42h70q-6 -8 -6 -12q0 -7 11 -28z" />
    <glyph glyph-name="w" unicode="w" horiz-adv-x="745" 
d="M222 92l146 374l149 -379l160 323q12 21 12 31q0 4 -4 11h73q-17 -13 -32 -45l-7 -16l-207 -407l-144 368l-142 -368l-201 408l-8 17q-13 29 -30 43h70q-3 -8 -3 -11q0 -12 14 -37z" />
    <glyph glyph-name="x" unicode="x" horiz-adv-x="444" 
d="M196 247l-141 174l-12 13l-11 12l-7 6h74q-4 -5 -4 -9q0 -6 6 -12l7 -9l114 -143l114 143l8 9q5 7 5 12q0 3 -3 9h74l-7 -6l-12 -12l-11 -13l-142 -174l172 -208q22 -26 38 -39h-76q3 6 3 9q0 6 -12 21l-151 185l-150 -185l-6 -7q-7 -8 -7 -14q0 -4 4 -9h-76q18 15 38 39
z" />
    <glyph glyph-name="y" unicode="y" horiz-adv-x="458" 
d="M202 28l-182 370q-18 38 -33 54h70q-6 -6 -6 -11q0 -4 5 -14l8 -18l164 -333l168 337l7 15q4 9 4 13q0 6 -6 11h70l-8 -8q-1 -2 -4.5 -7.5t-5.5 -9.5q-4 -7 -9 -15.5t-6 -10.5l-283 -569l-6 -13q-7 -17 -7 -19q0 -6 5 -14h-70q14 15 29 45z" />
    <glyph glyph-name="z" unicode="z" horiz-adv-x="411" 
d="M0 0l302 412h-208q-30 0 -45 -11v51h337l-303 -412h269h23q15 1 30 13v-53h-405z" />
    <glyph glyph-name="braceleft" unicode="{" 
d="M198 247q34 -16 48 -41.5t14 -72.5v-182q0 -56 19.5 -78t73.5 -23v-35h-9q-71 0 -99.5 33.5t-28.5 115.5v171q0 44 -12.5 65.5t-45.5 31.5v32q32 10 45 31.5t13 63.5v188q0 70 30 102t95 32h12v-35l-30 -3q-22 -4 -36 -14q-27 -20 -27 -80v-191q0 -31 -8 -57
q-9 -34 -54 -54z" />
    <glyph glyph-name="bar" unicode="|" 
d="M228 750h44v-1000h-44v1000z" />
    <glyph glyph-name="braceright" unicode="}" 
d="M307 249q-34 16 -48 41.5t-14 71.5v182q0 12 -1 24q-1 15 -3 25q-5 23 -24 37q-12 9 -35 13q-8 2 -31 3v35h10q71 0 99.5 -33.5t28.5 -116.5v-170q0 -45 12.5 -66t45.5 -31v-32q-32 -10 -45 -31.5t-13 -64.5v-187q0 -70 -30 -102.5t-95 -32.5q-1 0 -5.5 0.5t-7.5 0.5v35
q23 1 31 3q22 4 36 14q27 20 27 79v192q0 31 8 57q9 34 54 54z" />
    <glyph glyph-name="asciitilde" unicode="~" horiz-adv-x="667" 
d="M123 594l-29 18q29 55 60 79t71 24q37 0 115 -39q71 -35 102 -35t54 17t47 59l29 -18q-53 -101 -133 -101q-15 0 -39 6q-27 9 -37 14l-9 4.5t-22 10.5t-31 15q-51 24 -79 24q-54 0 -99 -78z" />
    <glyph glyph-name="nbspace" unicode="&#xa0;" horiz-adv-x="333" 
d="M0 0z" />
    <glyph glyph-name="exclamdown" unicode="&#xa1;" horiz-adv-x="251" 
d="M141 -213h-72q8 11 8 26l1 18l8 417v10q0 21 -8 35h55q-8 -14 -8 -35v-10l8 -417v-18q0 -13 8 -26zM105 460q16 0 27.5 -11t11.5 -27t-11 -27.5t-28 -11.5q-16 0 -27 11.5t-11 27.5t11 27t27 11z" />
    <glyph glyph-name="cent" unicode="&#xa2;" horiz-adv-x="587" 
d="M372 535v-392q28 4 44 11t47 30v-73q-13 6 -20 6q-2 0 -18 -4q-12 -3 -53 -12v-47q0 -24 10 -41h-48v88q-100 8 -163.5 75t-63.5 164t61.5 161.5t165.5 76.5v42q0 17 -12 33h50v-75l18 -4l33 -5q11 -2 21 -2q8 0 19 11v-82q-42 32 -91 39zM334 537q-77 -5 -130 -62
t-53 -135q0 -80 52 -136t131 -61v394z" />
    <glyph glyph-name="sterling" unicode="&#xa3;" horiz-adv-x="587" 
d="M170 307v-263h96q77 0 118.5 13.5t66.5 47.5q34 45 34 138v4h65q-10 -6 -13.5 -15.5t-9.5 -42.5q-11 -64 -33 -100q-56 -89 -216 -89h-167q12 17 12 43v264h-26h-18q-11 -1 -21 -10v54h65v115q0 94 52.5 154t134.5 60q33 0 59 -10q18 -6 24 -6q5 0 12 3v-69
q-47 37 -94 37q-64 0 -102.5 -48t-38.5 -127v-109h113q26 0 39 13v-57h-152z" />
    <glyph glyph-name="currency" unicode="&#xa4;" horiz-adv-x="667" 
d="M73 116l90 89q-55 67 -55 146q0 76 53 143l-91 90l26 26l91 -90q67 56 146 56t146 -55l91 89l26 -26l-90 -90q53 -68 53 -144q0 -74 -54 -143l91 -91l-25 -26l-92 91q-67 -55 -145 -55q-76 0 -145 53l-90 -90zM333 536q-76 0 -130 -54.5t-54 -130.5q0 -77 54 -131
t130 -54t130.5 54t54.5 130q0 77 -54 131.5t-131 54.5z" />
    <glyph glyph-name="yen" unicode="&#xa5;" horiz-adv-x="587" 
d="M266 309l-88 136h-86q-26 0 -39 -9v53h97l-88 134q-1 3 -12 17q-10 15 -23 27h88q-7 -13 -7 -19q0 -9 13 -29l84 -130h175l84 126q15 24 15 33q0 6 -9 19h89q-7 -7 -8 -9q-3 -2 -14 -17l-7.5 -10t-5.5 -8l-89 -134h63q22 0 35 8v-52h-128l-90 -136h117q22 0 35 8v-52
h-152v-222q0 -24 12 -43h-71q12 17 12 43v222h-110q-26 0 -38 -9v53h146zM233 445l59 -91l59 91h-118z" />
    <glyph glyph-name="section" unicode="&#xa7;" horiz-adv-x="489" 
d="M362 670v-73q-56 42 -118 42q-47 0 -75 -23.5t-28 -62.5q0 -53 76 -100l77 -47q87 -54 119.5 -91.5t32.5 -84.5q0 -54 -41 -97q-16 -16 -57 -45q3 -4 9.5 -10.5l9.5 -9.5q33 -34 46 -59t13 -56q0 -61 -49 -105t-115 -44q-42 0 -101 19q-6 2 -11 4t-9 3l-4 1q-7 3 -20 3
q-12 0 -20 -8v84q3 -2 5.5 -4.5l4.5 -4.5t4 -3.5t3 -2.5q59 -47 144 -47q50 0 84.5 31t34.5 75q0 30 -19 57q-19 28 -44 46.5t-111 68.5q-93 55 -126.5 92.5t-33.5 86.5q0 41 23 76q23 30 74 69q-48 52 -48 103q0 56 42.5 91.5t110.5 35.5q29 0 74 -13q12 -4 23 -4t20 7z
M176 424q-40 -21 -62.5 -52t-22.5 -65q0 -21 9 -40q11 -23 34.5 -42t81.5 -53q26 -15 74 -45l22 -14q37 24 50 36q35 35 35 85q0 46 -50 83q-59 44 -171 107z" />
    <glyph glyph-name="dieresis" unicode="&#xa8;" 
d="M129 573q0 15 10.5 25t25.5 10q14 0 24.5 -10t10.5 -25q0 -14 -10.5 -24.5t-24.5 -10.5q-15 0 -25.5 10.5t-10.5 24.5zM300 573q0 15 10.5 25t25.5 10q14 0 24.5 -10t10.5 -25q0 -14 -10.5 -24.5t-24.5 -10.5q-15 0 -25.5 10.5t-10.5 24.5z" />
    <glyph glyph-name="copyright" unicode="&#xa9;" horiz-adv-x="805" 
d="M403 -13q-145 0 -247.5 101.5t-102.5 244.5q0 144 102.5 245.5t247.5 101.5t247 -101.5t102 -245.5q0 -143 -102 -244.5t-247 -101.5zM403 20q128 0 219 91.5t91 221.5t-91 222t-219 92q-129 0 -220 -92t-91 -222t91 -221.5t220 -91.5zM514 533v-55q-46 21 -84 21
q-70 0 -120.5 -49t-50.5 -117t49.5 -117t117.5 -49q42 0 86 21v-55q-10 10 -18 10t-13 -2q-21 -5 -51 -5q-88 0 -147 56.5t-59 141.5q0 82 60.5 139.5t146.5 57.5q30 0 52 -5q6 -1 14 -1t17 8z" />
    <glyph glyph-name="ordfeminine" unicode="&#xaa;" horiz-adv-x="391" 
d="M289 400v36q-42 -44 -103 -44q-59 0 -101 41.5t-42 99.5q0 57 42 98t101 41q49 0 98 -35q22 -16 40 -16h2h7l-5 -5q-6 -8 -6 -23v-166q0 -15 5 -22l3 -5h-41zM330 330v-33h-274v33h274zM289 589q-7 8 -14 15q-35 37 -88 37q-44 0 -77.5 -33t-33.5 -76q0 -44 33.5 -76.5
t78.5 -32.5q60 0 101 56v110z" />
    <glyph glyph-name="guillemotleft" unicode="&#xab;" horiz-adv-x="401" 
d="M343 128h-72v4q0 7 -15 22l-80 79l80 79q15 15 15 21v5h72l-9 -6l-16 -14q-8 -7 -15 -14l-73 -71l73 -72q1 -1 3 -2.5t5.5 -4.5t6.5 -6l10 -10l6 -4q1 0 4 -2.5t5 -3.5zM205 128h-72q1 2 1 4q0 7 -16 22l-80 79l80 79q16 15 16 21q0 3 -1 5h72l-9 -6l-5 -4l-10 -10
q-9 -7 -16 -14l-72 -71l72 -72q3 -2 16 -13l10 -10l5 -4q1 0 4 -2.5t5 -3.5z" />
    <glyph glyph-name="logicalnot" unicode="&#xac;" 
d="M423 0v227h-390v40h434v-267h-44z" />
    <glyph glyph-name="registered" unicode="&#xae;" 
d="M450 563q0 -83 -59 -141.5t-141 -58.5t-141 58.5t-59 141.5t58.5 141.5t141.5 58.5t141.5 -58.5t58.5 -141.5zM424 563q0 73 -51 123.5t-123 50.5t-123 -51t-51 -123t51 -123t123 -51t123 51t51 123zM353 452h-30q-3 45 -25 70q-21 24 -76 34q31 4 44 13q20 13 20 38
q0 21 -15.5 35.5t-38.5 14.5q-15 0 -30 -9v-180q0 -8 5 -16h-31q6 7 6 16v206q8 -4 12 -4h5q24 5 37 5q29 0 49.5 -19.5t20.5 -47.5q0 -35 -28 -51q24 -7 42.5 -31t22.5 -55q1 -13 10 -19z" />
    <glyph glyph-name="macron" unicode="&#xaf;" 
d="M113 588h240q23 0 34 8v-48h-236q-26 0 -38 -9v49z" />
    <glyph glyph-name="degree" unicode="&#xb0;" 
d="M115 543q0 54 39.5 92.5t95.5 38.5t95.5 -38.5t39.5 -92.5q0 -55 -39.5 -93.5t-95.5 -38.5t-95.5 38.5t-39.5 93.5zM147 542q0 -41 30 -71t73 -30t73 30t30 72q0 41 -30 70.5t-73 30.5q-43 0 -73 -30t-30 -72z" />
    <glyph glyph-name="plusminus" unicode="&#xb1;" 
d="M33 380h195v180h44v-180h195v-40h-195v-180h-44v180h-195v40zM33 115h434v-40h-434v40z" />
    <glyph glyph-name="acute" unicode="&#xb4;" 
d="M387 644l30 -67q-9 4 -16 4t-27 -7l-178 -65l-6 15l165 88q24 13 32 32z" />
    <glyph glyph-name="mu" unicode="&#xb5;" 
d="M57 -165v643h43v-279q0 -74 19 -109q17 -32 50 -50t73 -18q70 0 112.5 52t42.5 137v267h42v-478h-42v101q-22 -50 -47 -73q-44 -42 -110 -42q-60 0 -103 35q-19 16 -37 45v-231h-43z" />
    <glyph glyph-name="paragraph" unicode="&#xb6;" horiz-adv-x="536" 
d="M220 -102v413h-18q-80 0 -132 49.5t-52 126.5q0 81 55 131q52 49 160 49h234v-36h-53v-733h-39v733h-116v-733h-39z" />
    <glyph glyph-name="periodcentered" unicode="&#xb7;" horiz-adv-x="92" 
d="M46 400q19 0 32.5 -13.5t13.5 -33.5q0 -19 -13.5 -32.5t-32.5 -13.5t-32.5 13.5t-13.5 32.5t13.5 33t32.5 14z" />
    <glyph glyph-name="cedilla" unicode="&#xb8;" 
d="M263 13l-7 -60q31 -5 50 -25t19 -49q0 -37 -24 -59t-67 -27q-10 0 -19 -5v44q15 -4 26 -4q21 0 36 15t15 36q0 20 -14 33.5t-36 13.5q-7 0 -22 -3l10 90h33z" />
    <glyph glyph-name="ordmasculine" unicode="&#xba;" horiz-adv-x="391" 
d="M51 532q0 59 42 99.5t103 40.5q60 0 102 -41t42 -99t-42 -99t-102 -41q-61 0 -103 40.5t-42 99.5zM331 330v-33h-270v33h270zM84 532q0 -45 33 -77.5t79 -32.5t79 32.5t33 77.5t-33 77.5t-79 32.5t-79 -32.5t-33 -77.5z" />
    <glyph glyph-name="guillemotright" unicode="&#xbb;" horiz-adv-x="401" 
d="M58 338h72v-5q0 -6 15 -21l80 -79l-80 -79q-15 -15 -15 -22v-4h-72q2 1 5 3.5t4 2.5t16 14q3 3 6.5 6t5.5 4.5t3 2.5l73 72l-73 71q-7 7 -15 14q-4 3 -7.5 6.5t-5.5 5t-3 2.5zM196 338h72q-1 -2 -1 -5q0 -6 16 -21l80 -79l-80 -79q-16 -15 -16 -22q0 -2 1 -4h-72
q2 1 5 3.5t4 2.5q0 1 2 2.5t6 5t7 6.5t7 6l6 4.5t2 2.5l73 72l-73 71q-2 4 -15 14q-3 3 -7 6.5t-6 5t-2 2.5z" />
    <glyph glyph-name="questiondown" unicode="&#xbf;" horiz-adv-x="480" 
d="M401 -140v-75q-11 6 -16 6q-7 0 -26 -6q-38 -12 -73 -12q-86 0 -146.5 61t-60.5 148q0 89 61 148.5t155 61.5v70q0 26 -11 36h67q-7 -7 -8 -10q-4 -6 -4 -14v-17v-117q-42 7 -54 7q-64 0 -111.5 -49t-47.5 -116t47.5 -115.5t112.5 -48.5q24 0 55 9q34 11 60 33zM317 460
q16 0 27.5 -11t11.5 -27t-11 -27.5t-28 -11.5q-16 0 -27 11.5t-11 27.5t11 27t27 11z" />
    <glyph glyph-name="Agrave" unicode="&#xc0;" horiz-adv-x="608" 
d="M470 193h-335l-65 -153q-6 -12 -6 -19q0 -10 12 -21h-89q13 9 21 23l11 22q8 16 9 19l267 616l291 -623q2 -4 5 -10.5t7 -14.5t6 -11q8 -12 17 -21h-85q11 11 11 20q0 5 -7 20zM124 806l30 67q9 -19 32 -31l164 -91l-4 -10l-179 63q-19 6 -27 6q-7 0 -16 -4zM449 238
l-153 337l-142 -337h295z" />
    <glyph glyph-name="Aacute" unicode="&#xc1;" horiz-adv-x="608" 
d="M470 193h-335l-65 -153q-6 -12 -6 -19q0 -10 12 -21h-89q13 9 21 23l11 22q8 16 9 19l267 616l291 -623q2 -4 5 -10.5t7 -14.5t6 -11q8 -12 17 -21h-85q11 11 11 20q0 5 -7 20zM440 873l30 -67q-9 4 -15 4q-9 0 -28 -6l-178 -63l-5 10l165 91q22 12 31 31zM449 238
l-153 337l-142 -337h295z" />
    <glyph glyph-name="Acircumflex" unicode="&#xc2;" horiz-adv-x="608" 
d="M470 193h-335l-65 -153q-6 -12 -6 -19q0 -10 12 -21h-89q13 9 21 23l11 22q8 16 9 19l267 616l291 -623q2 -4 5 -10.5t7 -14.5t6 -11q8 -12 17 -21h-85q11 11 11 20q0 5 -7 20zM218 742h-69q3 2 6.5 4.5t4.5 3.5q5 5 13 12l14 13l107 110l107 -110l14 -13l12 -12
q1 -1 3 -2t4.5 -2.5t4.5 -3.5h-70q3 4 3 7q0 5 -11 16l-67 72l-68 -72q-10 -11 -10 -16q0 -1 2 -7zM449 238l-153 337l-142 -337h295z" />
    <glyph glyph-name="Atilde" unicode="&#xc3;" horiz-adv-x="608" 
d="M470 193h-335l-65 -153q-6 -12 -6 -19q0 -10 12 -21h-89q13 9 21 23l11 22q8 16 9 19l267 616l291 -623q2 -4 5 -10.5t7 -14.5t6 -11q8 -12 17 -21h-85q11 11 11 20q0 5 -7 20zM181 762l-38 29q13 3 28 21q30 33 65 33q24 0 65 -19q37 -18 54 -18q30 0 49 43l40 -31
q-10 -2 -24 -18q-30 -36 -64 -36q-24 0 -63 19q-41 20 -57 20q-37 0 -55 -43zM449 238l-153 337l-142 -337h295z" />
    <glyph glyph-name="Adieresis" unicode="&#xc4;" horiz-adv-x="608" 
d="M470 193h-335l-65 -153q-6 -12 -6 -19q0 -10 12 -21h-89q13 9 21 23l11 22q8 16 9 19l267 616l291 -623q2 -4 5 -10.5t7 -14.5t6 -11q8 -12 17 -21h-85q11 11 11 20q0 5 -7 20zM173 796q0 14 10.5 24.5t24.5 10.5q15 0 25.5 -10t10.5 -25q0 -14 -10.5 -24.5t-25.5 -10.5
q-14 0 -24.5 10.5t-10.5 24.5zM344 796q0 14 10.5 24.5t24.5 10.5q15 0 25.5 -10t10.5 -25q0 -14 -10.5 -24.5t-25.5 -10.5q-14 0 -24.5 10.5t-10.5 24.5zM449 238l-153 337l-142 -337h295z" />
    <glyph glyph-name="Aring" unicode="&#xc5;" horiz-adv-x="608" 
d="M470 193h-335l-65 -153q-6 -12 -6 -19q0 -10 12 -21h-89q13 9 21 23l11 22q8 16 9 19l267 616l291 -623q2 -4 5 -10.5t7 -14.5t6 -11q8 -12 17 -21h-85q11 11 11 20q0 5 -7 20zM208 803q0 35 25.5 60t60.5 25t60 -25t25 -60t-25 -60.5t-60 -25.5t-60.5 25.5t-25.5 60.5z
M449 238l-153 337l-142 -337h295zM243 803q0 -21 15 -36t36 -15t35.5 15t14.5 36t-14.5 35.5t-35.5 14.5t-36 -14.5t-15 -35.5z" />
    <glyph glyph-name="AE" unicode="&#xc6;" horiz-adv-x="853" 
d="M470 206h-272l-120 -169q-14 -20 -14 -25q0 -7 8 -12h-89q14 10 20.5 17.5t25.5 33.5l421 576q15 20 15 29q0 5 -5 11h360v-57q-11 13 -40 13h-262v-240h187q23 0 34 12v-66q-11 11 -38 11h-183v-296h266q26 0 36 13v-57h-362q12 17 12 43v163zM470 250v332l-238 -332
h238z" />
    <glyph glyph-name="Ccedilla" unicode="&#xc7;" horiz-adv-x="551" 
d="M531 679v-78q-72 34 -138 34q-124 0 -211.5 -88.5t-87.5 -213.5q0 -123 86 -212.5t205 -89.5q74 0 142 34v-76q-14 11 -25 11q-9 0 -24 -3q-29 -7 -62 -10l-4 -26q70 -21 70 -77q0 -37 -24 -59.5t-67 -25.5q-16 -1 -25 -7v49q15 -7 29 -7q22 0 36.5 13t14.5 33
q0 23 -15.5 37t-40.5 14q-5 0 -20 -3l9 59q-144 6 -238 104t-94 243q0 146 101 246t248 100q46 0 86 -8q16 -3 26 -3q12 0 23 10z" />
    <glyph glyph-name="Egrave" unicode="&#xc8;" horiz-adv-x="467" 
d="M434 667v-56q-9 8 -16.5 10t-29.5 2h-257v-240h180q27 0 41 12v-66q-12 11 -36 11h-185v-296h267q24 0 36 11v-55h-363q12 17 12 43v581q0 26 -12 43h363zM75 806l30 67q9 -19 32 -31l164 -91l-4 -10l-179 63q-19 6 -27 6q-7 0 -16 -4z" />
    <glyph glyph-name="Eacute" unicode="&#xc9;" horiz-adv-x="467" 
d="M434 667v-56q-9 8 -16.5 10t-29.5 2h-257v-240h180q27 0 41 12v-66q-12 11 -36 11h-185v-296h267q24 0 36 11v-55h-363q12 17 12 43v581q0 26 -12 43h363zM391 873l30 -67q-9 4 -15 4q-9 0 -28 -6l-178 -63l-5 10l165 91q22 12 31 31z" />
    <glyph glyph-name="Ecircumflex" unicode="&#xca;" horiz-adv-x="467" 
d="M434 667v-56q-9 8 -16.5 10t-29.5 2h-257v-240h180q27 0 41 12v-66q-12 11 -36 11h-185v-296h267q24 0 36 11v-55h-363q12 17 12 43v581q0 26 -12 43h363zM169 742h-69q2 2 6 4.5t5 3.5l12 12l14 13l108 110l107 -110l14 -13l12 -12l12 -8h-70q2 3 2 7q0 6 -10 16l-67 72
l-68 -72q-10 -11 -10 -16q0 -1 2 -7z" />
    <glyph glyph-name="Edieresis" unicode="&#xcb;" horiz-adv-x="467" 
d="M434 667v-56q-9 8 -16.5 10t-29.5 2h-257v-240h180q27 0 41 12v-66q-12 11 -36 11h-185v-296h267q24 0 36 11v-55h-363q12 17 12 43v581q0 26 -12 43h363zM128 796q-1 14 9.5 24.5t25.5 10.5q14 0 24.5 -10t10.5 -25q0 -14 -10.5 -24.5t-24.5 -10.5q-15 0 -25 10.5
t-10 24.5zM298 796q0 14 10.5 24.5t25.5 10.5q14 0 24.5 -10t10.5 -25q0 -14 -10.5 -24.5t-24.5 -10.5q-15 0 -25.5 10.5t-10.5 24.5z" />
    <glyph glyph-name="Igrave" unicode="&#xcc;" horiz-adv-x="215" 
d="M71 667h73q-13 -19 -13 -43v-581q0 -24 13 -43h-73q12 19 12 43v581q0 24 -12 43zM-24 861l59 43v-8q0 -16 13 -35l97 -161l-9 -6l-124 143q-13 15 -18.5 19t-17.5 5z" />
    <glyph glyph-name="Iacute" unicode="&#xcd;" horiz-adv-x="215" 
d="M71 667h73q-12 -17 -12 -43v-581q0 -26 12 -43h-73q12 19 12 43v581q0 24 -12 43zM179 904l59 -43q-11 -2 -16.5 -5.5t-18.5 -18.5l-124 -143l-9 6l97 161q13 22 13 34q0 5 -1 9z" />
    <glyph glyph-name="Icircumflex" unicode="&#xce;" horiz-adv-x="215" 
d="M71 667h73q-13 -19 -13 -43v-581q0 -24 13 -43h-73q12 19 12 43v581q0 24 -12 43zM225 742h-63q2 3 2 7q0 5 -7 16l-50 73l-49 -73q-7 -12 -7 -16t1 -7h-62q2 2 5 4.5t4 3.5l1 1q1 1 2 2.5t3 4t4 4.5l11 13l87 110l87 -110q5 -5 12 -13q5 -7 10 -12q0 -1 1.5 -2t3.5 -2.5
t4 -3.5z" />
    <glyph glyph-name="Idieresis" unicode="&#xcf;" horiz-adv-x="215" 
d="M71 667h73q-13 -19 -13 -43v-581q0 -24 13 -43h-73q12 19 12 43v581q0 24 -12 43zM0 796q0 14 10.5 24.5t24.5 10.5q15 0 25.5 -10t10.5 -25q0 -14 -10.5 -24.5t-25.5 -10.5q-14 0 -24.5 10.5t-10.5 24.5zM144 796q0 14 10.5 24.5t25.5 10.5q14 0 24.5 -10t10.5 -25
q0 -14 -10.5 -24.5t-24.5 -10.5q-15 0 -25.5 10.5t-10.5 24.5z" />
    <glyph glyph-name="Ntilde" unicode="&#xd1;" horiz-adv-x="628" 
d="M83 684l415 -570v510q0 24 -12 43h71q-12 -17 -12 -43v-643l-415 565v-503q0 -26 13 -43h-72q12 17 12 43v641zM202 762l-38 29q13 4 27 21q30 33 65 33q24 0 65 -19q37 -18 55 -18q29 0 48 43l41 -31q-11 -2 -25 -18q-30 -36 -63 -36q-24 0 -63 19q-42 20 -58 20
q-36 0 -54 -43z" />
    <glyph glyph-name="Ograve" unicode="&#xd2;" horiz-adv-x="789" 
d="M47 333q0 143 102 245t245 102t245.5 -102t102.5 -245q0 -142 -102.5 -244t-245.5 -102t-245 101.5t-102 244.5zM214 806l30 67q10 -20 32 -31l165 -91l-5 -10l-179 63q-18 6 -27 6q-5 0 -16 -4zM96 333q0 -125 87.5 -213.5t210.5 -88.5q124 0 211.5 88.5t87.5 213.5
t-87.5 213.5t-211.5 88.5q-123 0 -210.5 -88.5t-87.5 -213.5z" />
    <glyph glyph-name="Oacute" unicode="&#xd3;" horiz-adv-x="789" 
d="M47 333q0 143 102 245t245 102t245.5 -102t102.5 -245q0 -142 -102.5 -244t-245.5 -102t-245 101.5t-102 244.5zM544 873l30 -67q-9 4 -16 4q-8 0 -27 -6l-179 -63l-4 10l164 91q23 12 32 31zM96 333q0 -125 87.5 -213.5t210.5 -88.5q124 0 211.5 88.5t87.5 213.5
t-87.5 213.5t-211.5 88.5q-123 0 -210.5 -88.5t-87.5 -213.5z" />
    <glyph glyph-name="Ocircumflex" unicode="&#xd4;" horiz-adv-x="789" 
d="M47 333q0 143 102 245t245 102t245.5 -102t102.5 -245q0 -142 -102.5 -244t-245.5 -102t-245 101.5t-102 244.5zM319 742h-70l12 8l12 12l14 13l107 110l108 -110l14 -13l12 -12q1 -1 5 -3.5t6 -4.5h-69q2 6 2 7q0 5 -10 16l-68 72l-67 -72q-10 -10 -10 -16q0 -4 2 -7z
M96 333q0 -125 87.5 -213.5t210.5 -88.5q124 0 211.5 88.5t87.5 213.5t-87.5 213.5t-211.5 88.5q-123 0 -210.5 -88.5t-87.5 -213.5z" />
    <glyph glyph-name="Otilde" unicode="&#xd5;" horiz-adv-x="789" 
d="M47 333q0 143 102 245t245 102t245.5 -102t102.5 -245q0 -142 -102.5 -244t-245.5 -102t-245 101.5t-102 244.5zM282 762l-38 29q13 4 27 21q30 33 66 33q25 0 64 -19q37 -18 55 -18q29 0 48 43l41 -31q-11 -2 -24 -18q-31 -36 -64 -36q-24 0 -63 19q-42 20 -58 20
q-36 0 -54 -43zM96 333q0 -125 87.5 -213.5t210.5 -88.5q124 0 211.5 88.5t87.5 213.5t-87.5 213.5t-211.5 88.5q-123 0 -210.5 -88.5t-87.5 -213.5z" />
    <glyph glyph-name="Odieresis" unicode="&#xd6;" horiz-adv-x="789" 
d="M47 333q0 143 102 245t245 102t245.5 -102t102.5 -245q0 -142 -102.5 -244t-245.5 -102t-245 101.5t-102 244.5zM274 796q0 14 10 24.5t25 10.5q14 0 24.5 -10t10.5 -25q0 -14 -10.5 -24.5t-24.5 -10.5t-24.5 10.5t-10.5 24.5zM445 796q-1 14 9.5 24.5t25.5 10.5
q14 0 24.5 -10t10.5 -25q0 -14 -10.5 -24.5t-24.5 -10.5q-15 0 -25 10.5t-10 24.5zM96 333q0 -125 87.5 -213.5t210.5 -88.5q124 0 211.5 88.5t87.5 213.5t-87.5 213.5t-211.5 88.5q-123 0 -210.5 -88.5t-87.5 -213.5z" />
    <glyph glyph-name="Oslash" unicode="&#xd8;" horiz-adv-x="788" 
d="M581 721h74q-20 -14 -33 -36l-10 -16l-28 -46q73 -48 115 -125t42 -164q0 -143 -101.5 -245t-243.5 -102q-90 0 -162 39l-21 -34l-7 -11q-7 -10 -7 -22q0 -5 1 -9h-66q12 9 21 21q14 21 20 32l25 43q-153 110 -153 287q0 142 102 244.5t244 102.5q71 0 157 -37l25 43
q11 18 11 25q0 4 -5 10zM527 603q-41 21 -66.5 27.5t-64.5 6.5q-124 0 -212.5 -90t-88.5 -215q0 -66 27 -124q18 -41 37.5 -65t61.5 -59zM257 64q44 -21 71.5 -28t65.5 -7q122 0 210.5 89.5t88.5 212.5q0 157 -131 251z" />
    <glyph glyph-name="Ugrave" unicode="&#xd9;" horiz-adv-x="606" 
d="M71 667h71q-12 -19 -12 -43v-402q0 -83 38 -130q23 -28 59.5 -44.5t75.5 -16.5t75.5 16.5t59.5 44.5q38 47 38 130v402q0 26 -12 43h71q-12 -19 -12 -43v-382q0 -69 -10 -106t-38 -71q-29 -36 -75.5 -57t-96.5 -21t-95.5 20.5t-76.5 57.5q-28 32 -38 69.5t-10 107.5v382
q0 24 -12 43zM123 806l30 67q9 -19 32 -31l165 -91l-5 -10l-179 63q-18 6 -27 6q-5 0 -16 -4z" />
    <glyph glyph-name="Uacute" unicode="&#xda;" horiz-adv-x="606" 
d="M71 667h71q-12 -19 -12 -43v-402q0 -83 38 -130q23 -28 59.5 -44.5t75.5 -16.5t75.5 16.5t59.5 44.5q38 47 38 130v402q0 26 -12 43h71q-12 -19 -12 -43v-382q0 -69 -10 -106t-38 -71q-29 -36 -75.5 -57t-96.5 -21t-95.5 20.5t-76.5 57.5q-28 32 -38 69.5t-10 107.5v382
q0 24 -12 43zM453 873l30 -67q-9 4 -16 4q-9 0 -27 -6l-179 -63l-4 10l164 91q23 12 32 31z" />
    <glyph glyph-name="Ucircumflex" unicode="&#xdb;" horiz-adv-x="606" 
d="M71 667h71q-12 -19 -12 -43v-402q0 -83 38 -130q23 -28 59.5 -44.5t75.5 -16.5t75.5 16.5t59.5 44.5q38 47 38 130v402q0 26 -12 43h71q-12 -19 -12 -43v-382q0 -69 -10 -106t-38 -71q-29 -36 -75.5 -57t-96.5 -21t-95.5 20.5t-76.5 57.5q-28 32 -38 69.5t-10 107.5v382
q0 24 -12 43zM228 742h-70q2 2 4.5 3.5t4.5 2.5t3 2q0 2 12 12l14 13l107 110l107 -110l14 -13q8 -7 13 -12q1 -1 5 -3.5t6 -4.5h-69q2 6 2 7q0 5 -10 16l-68 72l-67 -72q-11 -11 -11 -16q0 -3 3 -7z" />
    <glyph glyph-name="Udieresis" unicode="&#xdc;" horiz-adv-x="606" 
d="M71 667h71q-12 -19 -12 -43v-402q0 -83 38 -130q23 -28 59.5 -44.5t75.5 -16.5t75.5 16.5t59.5 44.5q38 47 38 130v402q0 26 -12 43h71q-12 -19 -12 -43v-382q0 -69 -10 -106t-38 -71q-29 -36 -75.5 -57t-96.5 -21t-95.5 20.5t-76.5 57.5q-28 32 -38 69.5t-10 107.5v382
q0 24 -12 43zM182 796q0 14 10.5 24.5t25.5 10.5q14 0 24.5 -10t10.5 -25q0 -14 -10.5 -24.5t-24.5 -10.5q-15 0 -25.5 10.5t-10.5 24.5zM353 796q0 14 10.5 24.5t25.5 10.5q14 0 24.5 -10t10.5 -25q0 -14 -10.5 -24.5t-24.5 -10.5q-15 0 -25.5 10.5t-10.5 24.5z" />
    <glyph glyph-name="germandbls" unicode="&#xdf;" horiz-adv-x="564" 
d="M195 -8v70q38 -21 59.5 -28t49.5 -7q70 0 122 53t52 125q0 44 -21.5 81t-56.5 54q-33 17 -100 28q51 13 71 25q25 14 40.5 42.5t15.5 59.5q0 57 -47.5 101t-109.5 44q-69 0 -112.5 -48t-43.5 -124v-468h-53q10 16 10 41v430q0 90 56.5 149.5t141.5 59.5q82 0 141 -56.5
t59 -133.5q0 -68 -59 -113q17 -9 29 -16q38 -22 60 -64.5t22 -93.5q0 -91 -62.5 -153.5t-153.5 -62.5q-36 0 -69 9q-12 3 -21 3q-7 0 -20 -7z" />
    <glyph glyph-name="agrave" unicode="&#xe0;" horiz-adv-x="574" 
d="M460 0v73q-18 -20 -19 -21q-65 -65 -161 -65q-98 0 -167.5 70.5t-69.5 169.5q0 98 70 168.5t167 70.5q23 0 56 -7q50 -13 106 -54q25 -19 38.5 -24t33.5 -5h3q-13 -17 -13 -44v-291q0 -24 10 -41h-54zM116 577l30 67q9 -20 32 -32l165 -89l-6 -13l-178 64q-21 7 -27 7
q-7 0 -16 -4zM460 328q-17 19 -25 28q-65 67 -154 67q-77 0 -135 -59t-58 -139t58 -138.5t137 -58.5q45 0 89 23q29 15 46.5 30.5t41.5 48.5v198z" />
    <glyph glyph-name="aacute" unicode="&#xe1;" horiz-adv-x="574" 
d="M460 0v73q-18 -20 -19 -21q-65 -65 -161 -65q-98 0 -167.5 70.5t-69.5 169.5q0 98 70 168.5t167 70.5q23 0 56 -7q50 -13 106 -54q25 -19 38.5 -24t33.5 -5h3q-13 -17 -13 -44v-291q0 -24 10 -41h-54zM433 644l30 -67q-9 4 -16 4t-27 -7l-178 -65l-6 15l165 88
q24 13 32 32zM460 328q-17 19 -25 28q-65 67 -154 67q-77 0 -135 -59t-58 -139t58 -138.5t137 -58.5q45 0 89 23q29 15 46.5 30.5t41.5 48.5v198z" />
    <glyph glyph-name="acircumflex" unicode="&#xe2;" horiz-adv-x="574" 
d="M460 0v73q-18 -20 -19 -21q-65 -65 -161 -65q-98 0 -167.5 70.5t-69.5 169.5q0 98 70 168.5t167 70.5q23 0 56 -7q50 -13 106 -54q25 -19 38.5 -24t33.5 -5h3q-13 -17 -13 -44v-291q0 -24 10 -41h-54zM207 519h-69q10 8 11 9q1 0 12 11l14 13l108 110l107 -110l14 -13
q11 -11 12 -11q1 -1 5 -4t7 -5h-70q2 3 2 7q0 6 -10 16l-67 72l-68 -72q-10 -11 -10 -16q0 -1 2 -7zM460 328q-17 19 -25 28q-65 67 -154 67q-77 0 -135 -59t-58 -139t58 -138.5t137 -58.5q45 0 89 23q29 15 46.5 30.5t41.5 48.5v198z" />
    <glyph glyph-name="atilde" unicode="&#xe3;" horiz-adv-x="574" 
d="M460 0v73q-18 -20 -19 -21q-65 -65 -161 -65q-98 0 -167.5 70.5t-69.5 169.5q0 98 70 168.5t167 70.5q23 0 56 -7q50 -13 106 -54q25 -19 38.5 -24t33.5 -5h3q-13 -17 -13 -44v-291q0 -24 10 -41h-54zM170 529l-38 29q12 3 28 21q30 34 65 34q23 0 64 -20q37 -18 55 -18
q30 0 49 43l40 -30q-12 -3 -24 -18q-29 -36 -64 -36q-26 0 -63 18q-43 21 -57 21q-36 0 -55 -44zM460 328q-17 19 -25 28q-65 67 -154 67q-77 0 -135 -59t-58 -139t58 -138.5t137 -58.5q45 0 89 23q29 15 46.5 30.5t41.5 48.5v198z" />
    <glyph glyph-name="adieresis" unicode="&#xe4;" horiz-adv-x="574" 
d="M460 0v73q-18 -20 -19 -21q-65 -65 -161 -65q-98 0 -167.5 70.5t-69.5 169.5q0 98 70 168.5t167 70.5q23 0 56 -7q50 -13 106 -54q25 -19 38.5 -24t33.5 -5h3q-13 -17 -13 -44v-291q0 -24 10 -41h-54zM162 573q0 15 10.5 25t24.5 10q15 0 25.5 -10t10.5 -25
q0 -14 -10.5 -24.5t-25.5 -10.5q-14 0 -24.5 10.5t-10.5 24.5zM333 573q0 15 10.5 25t24.5 10q15 0 25 -10t10 -25q0 -14 -10 -24.5t-25 -10.5q-14 0 -24.5 10.5t-10.5 24.5zM460 328q-17 19 -25 28q-65 67 -154 67q-77 0 -135 -59t-58 -139t58 -138.5t137 -58.5q45 0 89 23
q29 15 46.5 30.5t41.5 48.5v198z" />
    <glyph glyph-name="aring" unicode="&#xe5;" horiz-adv-x="574" 
d="M460 0v73q-18 -20 -19 -21q-65 -65 -161 -65q-98 0 -167.5 70.5t-69.5 169.5q0 98 70 168.5t167 70.5q23 0 56 -7q50 -13 106 -54q25 -19 38.5 -24t33.5 -5h3q-13 -17 -13 -44v-291q0 -24 10 -41h-54zM283 685q35 0 60 -25t25 -60t-25 -60t-60 -25q-35 -1 -60.5 24.5
t-25.5 60.5t25.5 60t60.5 25zM460 328q-17 19 -25 28q-65 67 -154 67q-77 0 -135 -59t-58 -139t58 -138.5t137 -58.5q45 0 89 23q29 15 46.5 30.5t41.5 48.5v198zM283 651q-21 0 -36 -15t-15 -36t15 -36t36 -15t35.5 15t14.5 36t-14.5 35.5t-35.5 15.5z" />
    <glyph glyph-name="ae" unicode="&#xe6;" horiz-adv-x="964" 
d="M941 206h-437q5 -72 61.5 -125t129.5 -53q60 0 141 35v-63q-8 7 -19 7q-7 0 -25 -4l-41 -11q-25 -5 -52 -5q-125 0 -196 108v-54q0 -25 10 -41h-48v82q-18 -24 -21 -27q-62 -68 -161 -68t-169.5 70.5t-70.5 168.5t69.5 169t166.5 71q54 0 112 -28q36 -18 56 -35.5
t46 -54.5q17 23 22 29q31 42 79 65.5t101 23.5q89 0 162 -64.5t76 -146.5l1 -26q0 -10 7 -23zM890 246q-8 79 -63 129t-133 50q-76 0 -130.5 -51.5t-59.5 -127.5h386zM465 321q-15 21 -24 30q-30 34 -73.5 54t-86.5 20q-79 0 -136 -59.5t-57 -141.5q0 -80 58 -138.5
t137 -58.5q52 0 97 27q26 15 42.5 31t42.5 52v184z" />
    <glyph glyph-name="ccedilla" unicode="&#xe7;" horiz-adv-x="432" 
d="M402 461v-77q-4 3 -9.5 7t-7.5 5q-44 29 -102 29q-79 0 -136.5 -59t-57.5 -139q0 -82 57.5 -141t137.5 -59q61 0 118 42v-72q-11 6 -20 6t-22 -4q-22 -7 -61 -12l-4 -34q31 -5 50 -25t19 -49q0 -36 -24 -58.5t-66 -27.5q-10 0 -19 -5v44q13 -4 26 -4q20 0 35 15t15 36
q0 20 -14 33.5t-36 13.5q-7 0 -22 -3l8 64q-96 8 -160 77t-64 164q0 97 70 167.5t167 70.5q35 0 76 -9q15 -5 25 -5q9 0 21 9z" />
    <glyph glyph-name="egrave" unicode="&#xe8;" horiz-adv-x="554" 
d="M531 205h-441q9 -77 64 -127t132 -50q57 0 137 34v-62q-10 6 -18 6q-9 0 -25 -4l-28 -7q-13 -3 -35 -6q-36 -2 -39 -2q-97 0 -166 70.5t-69 169.5t69.5 169t169.5 70q94 0 163.5 -64t74.5 -156q0 -5 0.5 -10.5t0.5 -6.5q1 -13 10 -24zM115 577l30 67q10 -20 32 -32
l165 -89l-5 -13l-179 64q-20 7 -27 7q-5 0 -16 -4zM474 246q-9 78 -62.5 128t-128.5 50q-77 0 -133 -52t-60 -126h384z" />
    <glyph glyph-name="eacute" unicode="&#xe9;" horiz-adv-x="554" 
d="M531 205h-441q9 -77 64 -127t132 -50q57 0 137 34v-62q-10 6 -18 6q-9 0 -25 -4l-28 -7q-13 -3 -35 -6q-36 -2 -39 -2q-97 0 -166 70.5t-69 169.5t69.5 169t169.5 70q94 0 163.5 -64t74.5 -156q0 -5 0.5 -10.5t0.5 -6.5q1 -13 10 -24zM419 644l30 -67q-9 4 -16 4t-27 -7
l-178 -65l-6 15l165 88q24 13 32 32zM474 246q-9 78 -62.5 128t-128.5 50q-77 0 -133 -52t-60 -126h384z" />
    <glyph glyph-name="ecircumflex" unicode="&#xea;" horiz-adv-x="554" 
d="M531 205h-441q9 -77 64 -127t132 -50q57 0 137 34v-62q-10 6 -18 6q-9 0 -25 -4l-28 -7q-13 -3 -35 -6q-36 -2 -39 -2q-97 0 -166 70.5t-69 169.5t69.5 169t169.5 70q94 0 163.5 -64t74.5 -156q0 -5 0.5 -10.5t0.5 -6.5q1 -13 10 -24zM207 519h-69q2 2 5.5 5t5.5 4
q1 0 12 11l14 13l107 110l108 -110l14 -13q11 -11 12 -11q1 -1 11 -9h-69q2 6 2 7q0 6 -10 16l-68 72l-67 -72q-10 -10 -10 -16q0 -4 2 -7zM474 246q-9 78 -62.5 128t-128.5 50q-77 0 -133 -52t-60 -126h384z" />
    <glyph glyph-name="edieresis" unicode="&#xeb;" horiz-adv-x="554" 
d="M531 205h-441q9 -77 64 -127t132 -50q57 0 137 34v-62q-10 6 -18 6q-9 0 -25 -4l-28 -7q-13 -3 -35 -6q-36 -2 -39 -2q-97 0 -166 70.5t-69 169.5t69.5 169t169.5 70q94 0 163.5 -64t74.5 -156q0 -5 0.5 -10.5t0.5 -6.5q1 -13 10 -24zM162 573q0 15 10 25t25 10
q14 0 24.5 -10t10.5 -25q0 -14 -10.5 -24.5t-24.5 -10.5q-15 0 -25 10.5t-10 24.5zM333 573q0 15 10 25t25 10q14 0 24.5 -10t10.5 -25q0 -14 -10.5 -24.5t-24.5 -10.5q-15 0 -25 10.5t-10 24.5zM474 246q-9 78 -62.5 128t-128.5 50q-77 0 -133 -52t-60 -126h384z" />
    <glyph glyph-name="igrave" unicode="&#xec;" horiz-adv-x="184" 
d="M114 452v-411q0 -25 10 -41h-64q10 16 10 41v371q0 24 -10 40h54zM-13 679l65 32q-2 -8 -2 -16q0 -12 7 -29l69 -175l-13 -5l-95 163q-9 16 -14.5 21t-16.5 9z" />
    <glyph glyph-name="iacute" unicode="&#xed;" horiz-adv-x="184" 
d="M114 452v-411q0 -26 11 -41h-65q10 16 10 41v371q0 24 -10 40h54zM132 711l65 -32q-11 -4 -16.5 -9t-14.5 -21l-94 -164l-15 7l70 174q7 17 7 29z" />
    <glyph glyph-name="icircumflex" unicode="&#xee;" horiz-adv-x="184" 
d="M114 452v-411q0 -26 11 -41h-65q10 16 10 41v371q0 24 -10 40h54zM197 519h-56q2 6 2 7q0 6 -7 16l-44 69l-44 -69q-6 -8 -6 -16q0 -4 1 -7h-56l9 9q3 4 8 11l11 13l77 110l78 -110l10 -13q5 -7 9 -11q1 -1 3.5 -4t4.5 -5z" />
    <glyph glyph-name="idieresis" unicode="&#xef;" horiz-adv-x="184" 
d="M114 452v-411q0 -26 11 -41h-65q10 16 10 41v371q0 24 -10 40h54zM-2 573q0 15 10.5 25t24.5 10q15 0 25.5 -10t10.5 -25q0 -14 -10.5 -24.5t-25.5 -10.5q-14 0 -24.5 10.5t-10.5 24.5zM116 573q0 15 10.5 25t24.5 10t24.5 -10t10.5 -25q0 -14 -10.5 -24.5t-24.5 -10.5
t-24.5 10.5t-10.5 24.5z" />
    <glyph glyph-name="ntilde" unicode="&#xf1;" horiz-adv-x="540" 
d="M113 340v-299q0 -25 10 -41h-63q10 17 10 41v268v26q0 15 -12 28q15 2 24.5 7.5t34.5 28.5q28 25 42 34q47 33 113 33q103 0 156 -70q42 -55 42 -166v-189q0 -25 10 -41h-64q11 16 11 41v206q0 85 -41 132t-115 47q-45 0 -83 -21q-36 -20 -75 -65zM157 529l-38 29
q12 4 27 21q31 34 66 34q23 0 64 -20q37 -18 55 -18q30 0 49 43l40 -30q-13 -4 -24 -18q-30 -36 -64 -36q-26 0 -63 18q-44 21 -57 21q-36 0 -55 -44z" />
    <glyph glyph-name="ograve" unicode="&#xf2;" horiz-adv-x="565" 
d="M43 226q0 100 70 170t170 70t169.5 -70t69.5 -170t-69.5 -169.5t-169.5 -69.5t-170 69.5t-70 169.5zM116 577l30 67q9 -20 32 -32l165 -89l-6 -13l-178 64q-21 7 -27 7q-7 0 -16 -4zM87 226q0 -81 58 -139.5t138 -58.5t137.5 58.5t57.5 139.5t-58 140t-137 59
q-80 0 -138 -59t-58 -140z" />
    <glyph glyph-name="oacute" unicode="&#xf3;" horiz-adv-x="565" 
d="M43 226q0 100 70 170t170 70t169.5 -70t69.5 -170t-69.5 -169.5t-169.5 -69.5t-170 69.5t-70 169.5zM420 644l30 -67q-11 4 -16 4q-9 0 -27 -7l-179 -65l-5 15l165 88q22 12 32 32zM87 226q0 -81 58 -139.5t138 -58.5t137.5 58.5t57.5 139.5t-58 140t-137 59
q-80 0 -138 -59t-58 -140z" />
    <glyph glyph-name="ocircumflex" unicode="&#xf4;" horiz-adv-x="565" 
d="M43 226q0 100 70 170t170 70t169.5 -70t69.5 -170t-69.5 -169.5t-169.5 -69.5t-170 69.5t-70 169.5zM207 519h-69q10 8 11 9q1 0 12 11l14 13l108 110l107 -110l14 -13q11 -11 12 -11q1 -1 5 -4t7 -5h-70q2 3 2 7q0 6 -10 16l-67 72l-68 -72q-10 -10 -10 -16q0 -1 2 -7z
M87 226q0 -81 58 -139.5t138 -58.5t137.5 58.5t57.5 139.5t-58 140t-137 59q-80 0 -138 -59t-58 -140z" />
    <glyph glyph-name="otilde" unicode="&#xf5;" horiz-adv-x="565" 
d="M43 226q0 100 70 170t170 70t169.5 -70t69.5 -170t-69.5 -169.5t-169.5 -69.5t-170 69.5t-70 169.5zM170 529l-38 29q12 3 28 21q30 34 65 34q23 0 64 -20q37 -18 55 -18q30 0 49 43l40 -30q-12 -3 -24 -18q-29 -36 -64 -36q-26 0 -63 18q-44 21 -57 21q-36 0 -55 -44z
M87 226q0 -81 58 -139.5t138 -58.5t137.5 58.5t57.5 139.5t-58 140t-137 59q-80 0 -138 -59t-58 -140z" />
    <glyph glyph-name="odieresis" unicode="&#xf6;" horiz-adv-x="565" 
d="M43 226q0 100 70 170t170 70t169.5 -70t69.5 -170t-69.5 -169.5t-169.5 -69.5t-170 69.5t-70 169.5zM162 573q0 15 10.5 25t24.5 10q15 0 25 -10t10 -25q0 -14 -10 -24.5t-25 -10.5q-14 0 -24.5 10.5t-10.5 24.5zM333 573q0 15 10.5 25t24.5 10q15 0 25 -10t10 -25
q0 -14 -10 -24.5t-25 -10.5q-14 0 -24.5 10.5t-10.5 24.5zM87 226q0 -81 58 -139.5t138 -58.5t137.5 58.5t57.5 139.5t-58 140t-137 59q-80 0 -138 -59t-58 -140z" />
    <glyph glyph-name="divide" unicode="&#xf7;" 
d="M250 554q15 0 25.5 -10.5t10.5 -25.5t-10.5 -26t-25.5 -11t-26 11t-11 26t11 25.5t26 10.5zM250 178q15 0 25.5 -11t10.5 -26t-10.5 -25.5t-25.5 -10.5t-26 10.5t-11 25.5t11 26t26 11zM33 350h434v-41h-434v41z" />
    <glyph glyph-name="oslash" unicode="&#xf8;" horiz-adv-x="564" 
d="M405 508h73q-13 -7 -18.5 -12.5t-14.5 -21.5l-29 -50q38 -29 57 -55q48 -62 48 -144q0 -100 -70 -169t-171 -69q-49 0 -102 23l-13 -22l-6 -12q-4 -5 -4 -13q0 -4 4 -11h-67q13 8 29 34l25 44q-103 72 -103 195q0 100 70 170.5t170 70.5q48 0 101 -24l21 35q7 14 7 20
q0 4 -7 11zM363 406q-34 19 -76 19q-82 0 -141 -59t-59 -141q0 -37 16 -77q11 -27 23.5 -42.5t39.5 -39.5zM197 47q48 -22 86 -22q79 0 136.5 59t57.5 141q0 44 -18 83q-21 43 -64 80z" />
    <glyph glyph-name="ugrave" unicode="&#xf9;" horiz-adv-x="539" 
d="M426 116v296q0 25 -11 40h64q-10 -16 -10 -40v-276q0 -24 2 -31.5t10 -17.5h-2q-13 0 -21 -5t-30 -25q-41 -38 -77 -54t-82 -16q-89 0 -144 54t-55 141v230q0 24 -10 40h64q-11 -15 -11 -40v-203q0 -48 8 -76t28 -52q48 -55 120 -55q37 0 77 20q26 13 42 26.5t38 43.5z
M103 577l30 67q10 -20 32 -32l165 -89l-5 -13l-179 64q-20 7 -27 7q-5 0 -16 -4z" />
    <glyph glyph-name="uacute" unicode="&#xfa;" horiz-adv-x="539" 
d="M426 116v296q0 25 -11 40h64q-10 -16 -10 -40v-276q0 -24 2 -31.5t10 -17.5h-2q-13 0 -21 -5t-30 -25q-41 -38 -77 -54t-82 -16q-89 0 -144 54t-55 141v230q0 24 -10 40h64q-11 -15 -11 -40v-203q0 -48 8 -76t28 -52q48 -55 120 -55q37 0 77 20q26 13 42 26.5t38 43.5z
M407 644l30 -67q-9 4 -16 4t-27 -7l-178 -65l-6 15l165 88q24 13 32 32z" />
    <glyph glyph-name="ucircumflex" unicode="&#xfb;" horiz-adv-x="539" 
d="M426 116v296q0 25 -11 40h64q-10 -16 -10 -40v-276q0 -24 2 -31.5t10 -17.5h-2q-13 0 -21 -5t-30 -25q-41 -38 -77 -54t-82 -16q-89 0 -144 54t-55 141v230q0 24 -10 40h64q-11 -15 -11 -40v-203q0 -48 8 -76t28 -52q48 -55 120 -55q37 0 77 20q26 13 42 26.5t38 43.5z
M195 519h-69q2 2 5.5 5t5.5 4q1 0 12 11l14 13l107 110l108 -110l14 -13q11 -11 12 -11q1 -1 11 -9h-69q2 6 2 7q0 6 -10 16l-68 72l-67 -72q-10 -10 -10 -16q0 -4 2 -7z" />
    <glyph glyph-name="udieresis" unicode="&#xfc;" horiz-adv-x="539" 
d="M426 116v296q0 25 -11 40h64q-10 -16 -10 -40v-276q0 -24 2 -31.5t10 -17.5h-2q-13 0 -21 -5t-30 -25q-41 -38 -77 -54t-82 -16q-89 0 -144 54t-55 141v230q0 24 -10 40h64q-11 -15 -11 -40v-203q0 -48 8 -76t28 -52q48 -55 120 -55q37 0 77 20q26 13 42 26.5t38 43.5z
M150 573q0 15 10 25t25 10q14 0 24.5 -10t10.5 -25q0 -14 -10.5 -24.5t-24.5 -10.5q-15 0 -25 10.5t-10 24.5zM321 573q0 15 10 25t25 10q14 0 24.5 -10t10.5 -25q0 -14 -10.5 -24.5t-24.5 -10.5q-15 0 -25 10.5t-10 24.5z" />
    <glyph glyph-name="ydieresis" unicode="&#xff;" horiz-adv-x="458" 
d="M202 28l-182 370q-18 38 -33 54h70q-6 -6 -6 -11q0 -4 5 -14l8 -18l164 -333l168 337l7 15q4 9 4 13q0 6 -6 11h70l-8 -8q-1 -2 -4.5 -7.5t-5.5 -9.5q-4 -7 -9 -15.5t-6 -10.5l-283 -569l-6 -13q-7 -17 -7 -19q0 -6 5 -14h-70q14 15 29 45zM108 573q0 15 10.5 25t25.5 10
q14 0 24.5 -10t10.5 -25q0 -14 -10.5 -24.5t-24.5 -10.5q-15 0 -25.5 10.5t-10.5 24.5zM279 573q0 15 10.5 25t24.5 10q15 0 25.5 -10t10.5 -25q0 -14 -10.5 -24.5t-25.5 -10.5q-14 0 -24.5 10.5t-10.5 24.5z" />
    <glyph glyph-name="dotlessi" unicode="&#x131;" horiz-adv-x="184" 
d="M114 452v-411q0 -25 10 -41h-64q10 16 10 41v371q0 24 -10 40h54z" />
    <glyph glyph-name="OE" unicode="&#x152;" horiz-adv-x="1057" 
d="M722 623v-240h180h15q11 0 25 11v-67q-10 11 -40 11h-180v-294h260q28 0 42 11v-55h-360l3 7q9 19 9 36v126q-37 -83 -116 -132.5t-173 -49.5q-140 0 -240 101.5t-100 243.5q0 141 101 244.5t239 103.5q127 0 221 -88q41 -38 68 -99v131q0 24 -12 43h360v-55
q-10 8 -16 9.5t-26 1.5h-260zM96 332q0 -124 86.5 -213t206.5 -89t206 89.5t86 214.5q0 124 -87 213t-208 89q-119 0 -204.5 -89.5t-85.5 -214.5z" />
    <glyph glyph-name="oe" unicode="&#x153;" horiz-adv-x="960" 
d="M936 206h-428v-5q0 -70 56.5 -121.5t133.5 -51.5q52 0 134 34v-61q-12 6 -20 6q-10 0 -30 -6q-50 -14 -90 -14q-67 0 -120.5 35.5t-85.5 100.5q-32 -66 -85 -101t-120 -35q-99 0 -168.5 70t-69.5 170q0 99 69 169t166 70q62 0 115 -33q32 -20 50.5 -40.5t42.5 -64.5
q12 23 19 35q30 47 81 75t106 28q91 0 161 -64.5t75 -152.5v-11t0.5 -7.5t0.5 -3.5q2 -11 7 -21zM887 247q-11 77 -65 127.5t-127 50.5q-44 0 -88.5 -23.5t-67.5 -58.5q-24 -36 -30 -96h378zM469 225q0 83 -55.5 141.5t-135.5 58.5q-77 0 -134 -59.5t-57 -140.5
q0 -80 57.5 -139t135.5 -59q79 0 134 57.5t55 140.5z" />
    <glyph glyph-name="Ydieresis" unicode="&#x178;" horiz-adv-x="505" 
d="M228 305l-206 318q0 1 -4 6.5t-8 10.5q-11 15 -23 27h87q-7 -13 -7 -19q0 -9 13 -29l171 -265l172 261q15 24 15 33q0 7 -9 19h90l-9 -9q-5 -5 -14 -17l-7.5 -10t-5.5 -8l-209 -315v-265q0 -24 12 -43h-71q13 19 13 43v262zM132 796q0 14 10.5 24.5t24.5 10.5
q15 0 25.5 -10t10.5 -25q0 -14 -10.5 -24.5t-25.5 -10.5q-14 0 -24.5 10.5t-10.5 24.5zM303 796q0 14 10.5 24.5t24.5 10.5q15 0 25 -10t10 -25q0 -14 -10 -24.5t-25 -10.5q-14 0 -24.5 10.5t-10.5 24.5z" />
    <glyph glyph-name="florin" unicode="&#x192;" horiz-adv-x="587" 
d="M327 485h117l-9 -50q-11 10 -35 10h-80l-56 -318l-6 -34t-5 -26t-2 -12q-23 -110 -74 -158q-37 -34 -110 -34h-15q-14 1 -28 1q-15 0 -27 -11l11 66q37 -13 66 -13q63 0 97 53q12 18 22 49q8 23 18 69q0 3 1.5 10.5l4 20t4.5 24.5l55 313h-53q-19 0 -34 -10l9 50h85
l16 91q13 78 57 120t112 42l26 -1q13 0 23 10l-12 -64q-19 12 -43 12q-46 0 -77 -29.5t-41 -81.5z" />
    <glyph glyph-name="circumflex" unicode="&#x2c6;" 
d="M175 519h-70q7 6 12 9q4 4 12 11l14 13l107 110l107 -110l14 -13l13 -11q1 -1 11 -9h-69q2 6 2 7q0 5 -10 16l-68 72l-67 -72q-11 -11 -11 -16q0 -2 3 -7z" />
    <glyph glyph-name="caron" unicode="&#x2c7;" 
d="M326 656h69q-10 -8 -11 -9l-13 -11l-14 -13l-107 -110l-107 110l-14 13l-12 11q-5 3 -12 9h70q-3 -4 -3 -7q0 -5 11 -16l67 -73l68 73q10 11 10 16q0 1 -2 7z" />
    <glyph glyph-name="breve" unicode="&#x2d8;" 
d="M342 636l46 -25q-9 -3 -14 -13q-15 -25 -41 -48q-34 -30 -83 -30q-79 0 -123 78q-7 10 -14 13l45 25q7 -34 33 -55t59 -21t59 21t33 55z" />
    <glyph glyph-name="dotaccent" unicode="&#x2d9;" 
d="M215 573q0 15 10.5 25t24.5 10t24.5 -10t10.5 -25q0 -14 -10.5 -24.5t-24.5 -10.5t-24.5 10.5t-10.5 24.5z" />
    <glyph glyph-name="ring" unicode="&#x2da;" 
d="M250 685q35 0 60 -25t25 -60t-25 -60t-60 -25q-35 -1 -60 24.5t-25 60.5t25 60t60 25zM250 651q-21 0 -36 -15t-15 -36t15 -36t36 -15t36 15t15 36t-15 35.5t-36 15.5z" />
    <glyph glyph-name="ogonek" unicode="&#x2db;" 
d="M331 0h48q-35 -11 -56.5 -31t-21.5 -44q0 -21 15.5 -36.5t35.5 -15.5q10 0 27 4v-44q-9 6 -26 7q-36 1 -60.5 25t-24.5 57q0 28 14.5 46t48.5 32z" />
    <glyph glyph-name="tilde" unicode="&#x2dc;" 
d="M137 529l-37 29q10 3 27 21q31 34 65 34q22 0 65 -20q37 -18 55 -18q29 0 48 43l41 -30q-12 -3 -25 -18q-29 -36 -63 -36q-27 0 -64 18q-43 21 -57 21q-35 0 -55 -44z" />
    <glyph glyph-name="hungarumlaut" unicode="&#x2dd;" 
d="M271 675l55 -47q-12 -1 -17.5 -4t-20.5 -17l-117 -113l-10 8l94 132q16 22 16 41zM404 675l55 -47q-12 -1 -17.5 -4t-19.5 -17l-118 -113l-9 8l94 132q15 21 15 41z" />
    <glyph glyph-name="Delta" unicode="&#x394;" horiz-adv-x="667" 
d="M33 0l277 667h46l277 -667h-600zM96 40h474l-237 574z" />
    <glyph glyph-name="Omega" unicode="&#x3a9;" horiz-adv-x="667" 
d="M28 0v39h201q-201 115 -201 321q0 137 88 230t217 93q130 0 217.5 -93t87.5 -230q0 -207 -201 -321h201v-39h-256v37q18 10 25 14q71 43 116 101q71 91 71 204q0 121 -75 204.5t-184 83.5q-112 0 -187 -82.5t-75 -204.5q0 -115 70 -205q30 -37 69 -68q33 -25 73 -47v-37
h-257z" />
    <glyph glyph-name="pi" unicode="&#x3c0;" horiz-adv-x="536" 
d="M96 0v482h-74v40h492v-40h-72v-482h-44v482h-259v-482h-43z" />
    <glyph glyph-name="endash" unicode="&#x2013;" 
d="M33 350h434v-41h-434v41z" />
    <glyph glyph-name="emdash" unicode="&#x2014;" horiz-adv-x="715" 
d="M0 254h681q24 0 34 8v-49h-677q-27 0 -38 -8v49z" />
    <glyph glyph-name="quoteleft" unicode="&#x2018;" horiz-adv-x="204" 
d="M116 486h-65l58 139q10 25 10 32q0 3 -3 10h42l-42 -140q-6 -22 -6 -28t6 -13z" />
    <glyph glyph-name="quoteright" unicode="&#x2019;" horiz-adv-x="204" 
d="M87 667h66l-58 -139q-10 -23 -10 -32q0 -2 2 -10h-41l41 140q7 22 7 28q0 5 -7 13z" />
    <glyph glyph-name="quotesinglbase" unicode="&#x201a;" horiz-adv-x="204" 
d="M87 60h66l-58 -139q-10 -23 -10 -32l2 -10h-41l41 140q7 22 7 28q0 5 -7 13z" />
    <glyph glyph-name="quotedblleft" unicode="&#x201c;" horiz-adv-x="310" 
d="M222 486h-65l58 139q9 23 9 32q0 5 -2 10h42l-42 -140q-6 -22 -6 -28t6 -13zM116 486h-65l58 139q10 27 10 32q0 3 -3 10h42l-42 -140q-6 -22 -6 -28t6 -13z" />
    <glyph glyph-name="quotedblright" unicode="&#x201d;" horiz-adv-x="310" 
d="M87 667h66l-58 -139q-10 -23 -10 -32q0 -2 2 -10h-41l41 140q7 22 7 28q0 5 -7 13zM193 667h66l-58 -139q-10 -23 -10 -32q0 -2 2 -10h-41l41 140q7 22 7 28q0 5 -7 13z" />
    <glyph glyph-name="quotedblbase" unicode="&#x201e;" horiz-adv-x="310" 
d="M87 60h66l-58 -139q-10 -23 -10 -32l2 -10h-41l41 140q7 22 7 28q0 5 -7 13zM193 60h66l-58 -139q-10 -23 -10 -32q0 -1 0.5 -2t1 -3.5t0.5 -4.5h-41l41 140q7 22 7 28q0 5 -7 13z" />
    <glyph glyph-name="dagger" unicode="&#x2020;" horiz-adv-x="489" 
d="M45 485h177v134q0 27 -13 48h71q-12 -20 -12 -48v-134h132q31 0 45 10v-52h-177v-593q0 -32 13 -51h-73q14 20 14 51v593h-133q-31 0 -44 -10v52z" />
    <glyph glyph-name="daggerdbl" unicode="&#x2021;" horiz-adv-x="489" 
d="M56 481h168v139q0 22 -2 29t-10 18h67q-8 -11 -10 -18t-2 -29v-139h125q31 0 42 9v-49h-167v-405h125q29 0 42 9v-49h-167v-151q0 -30 15 -46h-73q15 16 15 46v151h-131q-18 0 -37 -9v49h168v405h-125h-19q-11 0 -24 -8v48z" />
    <glyph glyph-name="bullet" unicode="&#x2022;" horiz-adv-x="667" 
d="M334 480q56 0 96.5 -41t40.5 -99t-40.5 -99t-96.5 -41q-57 0 -97.5 41t-40.5 99t40.5 99t97.5 41z" />
    <glyph glyph-name="ellipsis" unicode="&#x2026;" horiz-adv-x="631" 
d="M105 70q16 0 27.5 -11t11.5 -27t-11 -27.5t-28 -11.5q-16 0 -27 11.5t-11 27.5t11 27t27 11zM316 70q16 0 27 -11t11 -27t-11 -27.5t-27 -11.5t-27.5 11.5t-11.5 27.5t11.5 27t27.5 11zM526 70q16 0 27.5 -11t11.5 -27t-11.5 -27.5t-27.5 -11.5t-27.5 11.5t-11.5 27.5
t11.5 27t27.5 11z" />
    <glyph glyph-name="perthousand" unicode="&#x2030;" horiz-adv-x="969" 
d="M183 673q59 0 101.5 -42t42.5 -101t-42.5 -101t-101.5 -42t-101 42t-42 101t42 101t101 42zM469 667h64q-12 -12 -20 -27q-6 -10 -9 -16l-331 -589l-10 -16q-2 -6 -2 -9q0 -5 4 -10h-67q16 11 33 42l329 584q13 22 13 31q0 2 -4 10zM452 280q59 0 101 -42t42 -101
q0 -60 -42 -102t-101 -42t-101 42t-42 102q0 59 42 101t101 42zM785 280q60 0 102 -42t42 -101q0 -60 -42 -102t-102 -42q-59 0 -101 42t-42 102q0 59 42 101t101 42zM183 631q-41 0 -70.5 -29.5t-29.5 -71.5t29.5 -71.5t70.5 -29.5q42 0 71.5 29.5t29.5 71.5t-29.5 71.5
t-71.5 29.5zM452 237q-41 0 -70.5 -29.5t-29.5 -70.5q-1 -42 28.5 -71.5t71.5 -29.5t71.5 29.5t29.5 71.5q0 41 -29.5 70.5t-71.5 29.5zM785 237q-41 0 -70.5 -29.5t-29.5 -70.5q0 -42 29.5 -71.5t70.5 -29.5q42 0 71.5 29.5t29.5 71.5q0 41 -29.5 70.5t-71.5 29.5z" />
    <glyph glyph-name="guilsinglleft" unicode="&#x2039;" horiz-adv-x="264" 
d="M205 128h-72q1 2 1 4q0 7 -16 22l-80 79l80 79q16 15 16 21q0 3 -1 5h72q-8 -6 -9 -7l-15 -13q-9 -7 -16 -14l-72 -71l72 -72q3 -2 16 -13l10 -10l5 -4q1 0 4 -2.5t5 -3.5z" />
    <glyph glyph-name="guilsinglright" unicode="&#x203a;" horiz-adv-x="264" 
d="M58 338h72v-5q0 -6 15 -21l80 -79l-80 -79q-15 -15 -15 -22v-4h-72q2 1 5 3.5t4 2.5q1 1 3 2.5t5.5 5t7.5 6.5q3 3 6.5 6t5.5 4.5t3 2.5l73 72l-73 71q-7 7 -15 14q-4 3 -7.5 6.5t-5.5 5t-3 2.5z" />
    <glyph glyph-name="fraction" unicode="&#x2044;" horiz-adv-x="118" 
d="M215 667h60q-12 -12 -20 -27q-1 -1 -4 -7t-5 -9l-331 -589l-9 -16q-3 -5 -3 -9q0 -5 4 -10h-64q18 13 34 42l329 584q12 22 12 31q0 3 -3 10z" />
    <glyph glyph-name="trademark" unicode="&#x2122;" horiz-adv-x="704" 
d="M9 667h238v-39q-11 8 -23 8h-79v-322q0 -14 10 -27h-55q11 12 11 27v322h-79q-12 0 -23 -8v39zM466 359l125 320l78 -351q4 -21 7.5 -27t14.5 -14h-62q11 7 11 16q0 3 -1 5l-2 9l-55 253l-116 -298l-116 298l-55 -253l-2 -9v-6q0 -9 10 -15h-62q11 8 14.5 14t7.5 27
l78 351z" />
    <glyph glyph-name="partialdiff" unicode="&#x2202;" 
d="M87 633l6 40q78 -12 131.5 -36t99.5 -69q61 -59 96 -148.5t35 -185.5q0 -91 -39 -150q-29 -44 -75.5 -70t-98.5 -26q-88 0 -151 66.5t-63 158.5q0 94 61 158.5t149 64.5q71 0 116 -37q18 -14 44 -51l-5 13q-16 47 -27 71q-27 59 -77 106q-50 46 -106 69q-38 17 -96 26z
M245 399q-72 0 -122.5 -54.5t-50.5 -132.5q0 -77 50 -131t120 -54q72 0 119.5 54.5t47.5 136.5q0 80 -45.5 130.5t-118.5 50.5z" />
    <glyph glyph-name="product" unicode="&#x220f;" horiz-adv-x="681" 
d="M35 750h611v-39h-77v-922h77v-39h-204v39h83v922h-369v-922h82v-39h-203v39h77v922h-77v39z" />
    <glyph glyph-name="summation" unicode="&#x2211;" horiz-adv-x="667" 
d="M587 750v-216h-40l-3 177h-463l253 -440l-255 -482h474l2 176h41v-215h-564v46l251 476l-251 434v44h555z" />
    <glyph glyph-name="radical" unicode="&#x221a;" horiz-adv-x="667" 
d="M667 827v-40h-206l-241 -787h-48l-95 314h-77v39h112l47 -149l4 -14t5 -19.5t7 -26.5q7 -33 15 -57l5 -17h3l6 23l20 69l28 101l55 176l118 388h242z" />
    <glyph glyph-name="infinity" unicode="&#x221e;" horiz-adv-x="665" 
d="M333 309q-41 -62 -80.5 -90t-87.5 -28q-65 0 -106 42t-41 109q0 64 41 105.5t106 41.5q47 0 87 -28t80 -89q41 63 80.5 90t90.5 27q63 0 103.5 -42t40.5 -108q0 -65 -40.5 -106.5t-104.5 -41.5q-50 0 -89.5 27.5t-79.5 90.5zM309 340q-67 109 -143 109q-45 0 -73.5 -30.5
t-28.5 -78.5q0 -47 29 -77.5t74 -30.5q60 0 111 63q12 15 31 45zM356 341q20 -30 36 -51q46 -58 107 -58q45 0 73.5 30t28.5 79q0 47 -29 77.5t-74 30.5q-61 0 -110 -64q-13 -15 -32 -44z" />
    <glyph glyph-name="integral" unicode="&#x222b;" 
d="M120 -239l12 39q22 -11 40 -11q34 0 47 24q9 18 9 91v686v39q1 46 8 65q8 26 32.5 41t57.5 15q23 0 54 -11l-12 -39q-22 11 -40 11q-34 0 -47 -24q-5 -9 -7 -26q-2 -30 -2 -79v-672q0 -93 -13 -115q-26 -44 -92 -44q-23 0 -47 10z" />
    <glyph glyph-name="approxequal" unicode="&#x2248;" 
d="M40 346l-29 18q53 103 130 103q39 0 116 -39q9 -4 19 -8.5t19.5 -9t13.5 -6.5q25 -11 50 -11q31 0 53 17t48 59l29 -17q-53 -102 -134 -102q-17 0 -38 7q-24 6 -37 13q-10 4 -63 30q-49 24 -78 24t-52 -18t-47 -60zM40 198l-29 18q53 103 130 103q38 0 116 -39
q33 -17 52 -24q24 -12 50 -12q31 0 53 17t48 59l29 -17q-53 -102 -134 -102q-17 0 -38 7q-13 4 -37 13q-16 7 -63 31q-49 24 -78 24q-55 0 -99 -78z" />
    <glyph glyph-name="notequal" unicode="&#x2260;" 
d="M277 429l55 115h38l-54 -115h150v-40h-168l-50 -104h219v-40h-237l-58 -123h-38l57 123h-157v40h176l49 104h-226v40h244z" />
    <glyph glyph-name="lessequal" unicode="&#x2264;" 
d="M467 573v-42l-386 -169l386 -168v-42l-434 191v39zM467 122v-40h-434v40h434z" />
    <glyph glyph-name="greaterequal" unicode="&#x2265;" 
d="M33 152v42l386 168l-386 169v42l434 -191v-39zM33 82v40h434v-40h-434z" />
    <glyph glyph-name="lozenge" unicode="&#x25ca;" horiz-adv-x="667" 
d="M333 693l260 -359l-260 -360l-259 360zM333 622l-209 -288l209 -288l210 288z" />
    <glyph glyph-name="apple" unicode="&#xf8ff;" horiz-adv-x="667" 
d="M480 691v-10q0 -65 -44.5 -114t-103.5 -49q1 73 40.5 118.5t107.5 54.5zM623 457q-43 -34 -61.5 -66t-18.5 -73q0 -50 26.5 -90t72.5 -59q-22 -55 -44 -91q-65 -105 -127 -105q-19 0 -38 9l-41 17q-10 4 -33 4q-36 0 -51 -5l-43 -18q-21 -8 -40 -8q-55 0 -109 82
q-84 124 -84 252q0 98 52 159t135 61q33 0 77 -18q33 -12 48 -12q17 0 43 10q42 15 56 18.5t35 3.5q92 0 145 -71z" />
    <glyph glyph-name="fi" unicode="&#xfb01;" horiz-adv-x="448" 
d="M121 452h138v-49q-12 8 -35 8h-103v-370q0 -24 10 -41h-65q11 16 11 41v370h-30q-22 0 -36 -12v53h66q0 80 18 120q15 35 49.5 60t76.5 31l20 3q11 1 23 12v-62q-16 5 -28 5q-32 0 -60.5 -18t-41.5 -46q-13 -27 -13 -92v-13zM378 452v-411q0 -26 11 -41h-65q10 16 10 41
v371q0 24 -10 40h54zM357 611q14 0 23.5 -10t9.5 -24q0 -13 -10 -23t-23 -10q-14 0 -24 9.5t-10 23.5t10 24t24 10z" />
    <glyph glyph-name="fl" unicode="&#xfb02;" horiz-adv-x="448" 
d="M121 452h138v-49q-12 8 -35 8h-103v-370q0 -24 10 -41h-65q11 16 11 41v370h-30q-22 0 -36 -12v53h66q0 80 18 120q15 35 49.5 60t76.5 31l20 3q11 1 23 12v-62q-16 5 -28 5q-32 0 -60.5 -18t-41.5 -46q-13 -27 -13 -92v-13zM378 667v-626q0 -26 11 -41h-65q10 16 10 41
v585q0 24 -10 41h54z" />
    </font>
</defs>
</svg>
